Баранкин, будь человеком! Дядя Миша. Ивашка из Дворца пионеров. Про Сидорова Вову. (1963-1985) DVDRip от New-Team

 
Автор Сообщение

Белочка ®

Пол:

Стаж: 5 лет 1 месяц

Сообщений: 2089



Награды: 1 (Подробнее)

Girls (Количество: 1)
Торрент-статистика

Создавать темы 25-Окт-2014 22:32

[Цитировать]

Страна: СССР
Производство: Союзмультфильм
Жанр: мультфильм, короткометражка
Год выпуска: 1963-1985
Продолжительность: 00:20:13, 00:09:27, 00:09:24, 00:09:55
Перевод: не требуется
Оригинальная аудиодорожка: русский
Cубтитры: нет
Режиссер: Александра Снежко-Блоцкая, Юрий Прытков, Геннадий Сокольский, Эдуард Назаров
Описание:
Баранкин, будь человеком! По одноименной повести Валерия Медведева. Ленивый и непослушный ученик Баранкин превращается в крохотного человечка. Его ждет много опасностей и приключений в мире насекомых...
Дядя Миша Медведь пытается сделать запасы на зиму: собрать морковь, грибы, орехи, наловить рыбы, украсть курочку. Но во всём терпит неудачу...
Ивашка из Дворца пионеров Приключения современного мальчика в стране сказок...
Про Сидорова Вову В основу мультфильма положено сатирическое стихотворение Э. Успенского, высмеивающее родителей, которые в своей слепой любви доходят до абсурда и тем самым калечат ребенка, воспитывая его неприспособленным к нормальной трудовой жизни, службе в армии...- -Исходник: DVD5 R5
Качество: DVDRip
Формат: AVI
Видео: 688x528 (4:3), 25 fps, XviD ~ 1916 kbps avg, 0.211 bit/pixel
Аудио: 48 kHz, AC3, 2 ch, 192.00 kbps

Отчёт MediaInfo

Общее
Полное имя : Barankin,bud'.chelovekom!1963.DVDRip_[Youtracker]_by_AVP Studio.avi
Формат : AVI
Формат/Информация : Audio Video Interleave
Размер файла : 306 Мбайт
Продолжительность : 20 м.
Общий поток : 2118 Кбит/сек
Программа кодирования : VirtualDubMod 1.5.10.3 | www.virtualdub-fr.org || (build 2550/release)
Библиотека кодирования : VirtualDubMod build 2550/release
Видео
Идентификатор : 0
Формат : MPEG-4 Visual
Профиль формата : Advanced Simple@L5
Параметр BVOP формата : 1
Параметр QPel формата : Нет
Параметр GMC формата : Без точки перехода
Параметр матрицы формата : Выборочная
Идентификатор кодека : XVID
Идентификатор кодека/Подсказка : XviD
Продолжительность : 20 м.
Битрейт : 1916 Кбит/сек
Ширина : 688 пикселей
Высота : 528 пикселей
Соотношение сторон : 4:3
Частота кадров : 25,000 кадров/сек
Цветовое пространство : YUV
Субдискретизация насыщенности : 4:2:0
Битовая глубина : 8 бит
Тип развёртки : Прогрессивная
Метод сжатия : С потерями
Бит/(Пиксели*Кадры) : 0.211
Размер потока : 277 Мбайт (90%)
Библиотека кодирования : XviD 65
Аудио
Идентификатор : 1
Формат : AC-3
Формат/Информация : Audio Coding 3
Расширение режима : CM (complete main)
Идентификатор кодека : 2000
Продолжительность : 20 м.
Вид битрейта : Постоянный
Битрейт : 192 Кбит/сек
Каналы : 2 канала
Расположение каналов : Front: L R
Частота : 48,0 КГц
Битовая глубина : 16 бит
Метод сжатия : С потерями
Размер потока : 27,8 Мбайт (9%)
Выравнивание : Разделение по промежуткам
Продолжительность промежутка : 40 мс. (1,00 видеокадр)
Время предзагрузки промежутка : 500 мс

Скриншоты

[Профиль] [ЛС]
Кто просматривает тему:

Форум Тема Автор Размер
Отечественные мультфильмы Баран и роза (К. Курепыльд) [1982, Таллинфильм, кукольный, для взрослых, TeleSynch] painkiller 100 MB
Отечественные мультфильмы Баран и роза / Oinas ja roos (Калью Курепыльд) [1982, кукольный, для взрослых, TeleSynch] TorrentFilm 339 MB
Отечественные мультфильмы Баранкин, будь человеком! (Александра Снежко-Блоцкая) [1963 г., Мультфильм, DVDRip] TorrentFilm 376 MB
Мультфильмы СССР Баранкин, будь человеком! Дядя Миша. Ивашка из Дворца пионеров. Про Сидорова Вову. (1963-1985) DVDRip-AVC от New-Team Белочка 744 MB
Фильмы 2015 года Бараны / Rams / Hrutar (2015) DVDRip | L1 достали все 1.17 GB
Фильмы 2014 года День дурака (Александр Баранов) [2014 г., комедия, приключения, DVDRip] BOSS 1.46 GB
Фильмы (HD Rips | 720p, 1080p) Джентльмены, удачи! (Александр Баранов, Дмитрий Киселёв) [2012, Россия, комедия, криминал, BDRip 1080p] TorrentFilm 6.99 GB
Фильмы (HD Rips | 720p, 1080p) Джентльмены, удачи! (Александр Баранов, Дмитрий Киселёв) [2012, Россия, комедия, криминал, Blu-ray Disc 1080p] [RUS] TorrentFilm 22.03 GB
Показать сообщения:    

Текущее время: Сегодня 08:31

Часовой пояс: GMT



Вы не можете начинать темы
Вы не можете отвечать на сообщения
Вы не можете редактировать свои сообщения
Вы не можете удалять свои сообщения
Вы не можете голосовать в опросах
Вы не можете прикреплять файлы к сообщениям
Вы не можете скачивать файлы