Баранкин, будь человеком! Дядя Миша. Ивашка из Дворца пионеров. Про Сидорова Вову. (1963-1985) DVDRip-AVC от New-Team

 
Автор Сообщение

Белочка ®

Пол:

Стаж: 5 лет 1 месяц

Сообщений: 2089



Награды: 1 (Подробнее)

Girls (Количество: 1)
Торрент-статистика

Создавать темы 25-Окт-2014 22:32

[Цитировать]

Страна: СССР
Производство: Союзмультфильм
Жанр: мультфильм, короткометражка
Год выпуска: 1963-1985
Продолжительность: 00:20:13, 00:09:27, 00:09:24, 00:09:55
Перевод: не требуется
Оригинальная аудиодорожка: русский
Cубтитры: нет
Режиссер: Александра Снежко-Блоцкая, Юрий Прытков, Геннадий Сокольский, Эдуард Назаров
Описание:
Баранкин, будь человеком! По одноименной повести Валерия Медведева. Ленивый и непослушный ученик Баранкин превращается в крохотного человечка. Его ждет много опасностей и приключений в мире насекомых...
Дядя Миша Медведь пытается сделать запасы на зиму: собрать морковь, грибы, орехи, наловить рыбы, украсть курочку. Но во всём терпит неудачу...
Ивашка из Дворца пионеров Приключения современного мальчика в стране сказок...
Про Сидорова Вову В основу мультфильма положено сатирическое стихотворение Э. Успенского, высмеивающее родителей, которые в своей слепой любви доходят до абсурда и тем самым калечат ребенка, воспитывая его неприспособленным к нормальной трудовой жизни, службе в армии...- -Исходник: DVD5 R5
Качество: DVDRip-AVC
Формат: MKV
Видео: 700x572@768x572 (4:3), 25 fps, H264 ~ 1929 kbps avg, 0.193 bit/pixel
Аудио: 48 kHz, AC3, 2 ch, 192.00 kbps

Отчёт MediaInfo

Общее
Полное имя : Barankin,bud'.chelovekom!1963.DVDRip-AVC_[Youtracker]_by_AVP Studio.mkv
Формат : Matroska
Версия формата : Version 2
Размер файла : 307 Мбайт
Продолжительность : 20 м.
Общий поток : 2124 Кбит/сек
Дата кодирования : UTC 2013-03-31 15:55:25
Программа кодирования : mkvmerge v5.0.1 ('Es ist Sommer') built on Nov 6 2011 16:23:40
Библиотека кодирования : libebml v1.2.2 + libmatroska v1.3.0
Видео
Идентификатор : 1
Формат : AVC
Формат/Информация : Advanced Video Codec
Профиль формата : High@L4.1
Параметр CABAC формата : Да
Параметр ReFrames формата : 11 кадров
Идентификатор кодека : V_MPEG4/ISO/AVC
Продолжительность : 20 м.
Битрейт : 1929 Кбит/сек
Ширина : 700 пикселей
Высота : 572 пикселя
Соотношение сторон : 4:3
Соотношение сторон в оригинале : 4:3
Частота кадров : 25,000 кадров/сек
Цветовое пространство : YUV
Субдискретизация насыщенности : 4:2:0
Битовая глубина : 8 бит
Тип развёртки : Прогрессивная
Бит/(Пиксели*Кадры) : 0.193
Размер потока : 273 Мбайт (89%)
Библиотека кодирования : x264 core 119 r2106 07efeb4
Настройки программы : cabac=1 / ref=11 / deblock=1:-2:-1 / analyse=0x3:0x113 / me=umh / subme=9 / psy=1 / psy_rd=1.00:0.20 / mixed_ref=1 / me_range=32 / chroma_me=1 / trellis=1 / 8x8dct=1 / cqm=0 / deadzone=21,11 / fast_pskip=0 / chroma_qp_offset=-3 / threads=3 / sliced_threads=0 / nr=0 / decimate=0 / interlaced=0 / bluray_compat=0 / constrained_intra=0 / bframes=8 / b_pyramid=2 / b_adapt=2 / b_bias=0 / direct=3 / weightb=1 / open_gop=0 / weightp=2 / keyint=250 / keyint_min=25 / scenecut=40 / intra_refresh=0 / rc_lookahead=60 / rc=2pass / mbtree=1 / bitrate=1929 / ratetol=1.0 / qcomp=0.60 / qpmin=0 / qpmax=69 / qpstep=4 / cplxblur=20.0 / qblur=0.5 / ip_ratio=1.40 / aq=1:1.00
Default : Да
Forced : Нет
Аудио
Идентификатор : 2
Формат : AC-3
Формат/Информация : Audio Coding 3
Расширение режима : CM (complete main)
Идентификатор кодека : A_AC3
Продолжительность : 20 м.
Вид битрейта : Постоянный
Битрейт : 192 Кбит/сек
Каналы : 2 канала
Расположение каналов : Front: L R
Частота : 48,0 КГц
Битовая глубина : 16 бит
Метод сжатия : С потерями
Размер потока : 27,8 Мбайт (9%)
Default : Да
Forced : Нет

Скриншоты

[Профиль] [ЛС]
Кто просматривает тему:

Форум Тема Автор Размер
Отечественные мультфильмы Баран и роза (К. Курепыльд) [1982, Таллинфильм, кукольный, для взрослых, TeleSynch] painkiller 100 MB
Отечественные мультфильмы Баран и роза / Oinas ja roos (Калью Курепыльд) [1982, кукольный, для взрослых, TeleSynch] TorrentFilm 339 MB
Отечественные мультфильмы Баранкин, будь человеком! (Александра Снежко-Блоцкая) [1963 г., Мультфильм, DVDRip] TorrentFilm 376 MB
Мультфильмы СССР Баранкин, будь человеком! Дядя Миша. Ивашка из Дворца пионеров. Про Сидорова Вову. (1963-1985) DVDRip от New-Team Белочка 739 MB
Фильмы 2015 года Бараны / Rams / Hrutar (2015) DVDRip | L1 достали все 1.17 GB
Фильмы 2014 года День дурака (Александр Баранов) [2014 г., комедия, приключения, DVDRip] BOSS 1.46 GB
Фильмы (HD Rips | 720p, 1080p) Джентльмены, удачи! (Александр Баранов, Дмитрий Киселёв) [2012, Россия, комедия, криминал, BDRip 1080p] TorrentFilm 6.99 GB
Фильмы (HD Rips | 720p, 1080p) Джентльмены, удачи! (Александр Баранов, Дмитрий Киселёв) [2012, Россия, комедия, криминал, Blu-ray Disc 1080p] [RUS] TorrentFilm 22.03 GB
Показать сообщения:    

Текущее время: Сегодня 21:32

Часовой пояс: GMT



Вы не можете начинать темы
Вы не можете отвечать на сообщения
Вы не можете редактировать свои сообщения
Вы не можете удалять свои сообщения
Вы не можете голосовать в опросах
Вы не можете прикреплять файлы к сообщениям
Вы не можете скачивать файлы