Бандиты / Бродяги / Truands (Фредерик Шёндёрфер / Frédéric Schoendoerffer) [2006, Франция, триллер, криминал, DVDRip] MVO (Автор студия) + Original Fre

 
Автор Сообщение

TorrentFilm ®

Пол:

Стаж: 2 года

Сообщений: 7741



Награды: Нет

Торрент-статистика

Создавать темы 21-Июн-2015 00:08

[Цитировать]

Бандиты / Бродяги / Truands
Страна: Франция
Жанр: триллер, криминал
Год выпуска: 2006
Продолжительность: 01:42:48
Перевод: Профессиональный (многоголосый закадровый) - Автор студия
Cубтитры: нет
Оригинальная аудиодорожка: французский

Режиссер: Фредерик Шёндёрфер / Frédéric Schoendoerffer
В ролях: Бенуа Мажимель, Филипп Кобер, Беатрис Даль, Оливье Маршаль, Мехди Неббу, Томер Сисле, Людовик Шёндёрфер, Энн Маривин, Ален Фиглаж, Сириль Леконт
Описание: Пятидесятилетний Клод Корти является настоящим королем бандитизма современного Парижа: наркотики, «живой товар» из Восточной Европы, фальшивые купюры, налеты, рэкет — империя Корти держится на исключительном насилии. Но когда король бандитизма на несколько месяцев попадает за решетку, его преступная структура начинает стремительно рушиться — является ли это результатом спланированного заговора, или просто приступом паранойи больного сознания гангстера?
Качество видео: DVDRip
Формат видео: AVI
Видео: 704x304 (2.32:1), 25 fps, XviD build 73 ~2363 kbps avg, 0.40 bit/pixel
Аудио: 48 kHz, AC3 Dolby Digital, 2/0 (L,R) ch, ~192 kbps - многоголосый
Аудио: 48 kHz, AC3 Dolby Digital, 3/2 (L,C,R,l,r) + LFE ch, ~448 kbps - оригинал

MediaInfo

Общее
Полное имя : H:\Truands.2006.dvdrip_[1.46]_[teko].avi
Формат : AVI
Формат/Информация : Audio Video Interleave
Профиль формата : OpenDML
Размер файла : 2,18 Гбайт
Продолжительность : 1 ч. 42 м.
Общий поток : 3041 Кбит/сек
Программа кодирования : VirtualDubMod 1.5.10.3 | www.virtualdub-fr.org || (build 2550/release)
Библиотека кодирования : VirtualDubMod build 2550/release
Видео
Идентификатор : 0
Формат : MPEG-4 Visual
Профиль формата : Advanced Simple@L5
Параметр BVOP формата : 1
Параметр QPel формата : Нет
Параметр GMC формата : Без точки перехода
Параметр матрицы формата : Выборочная
Идентификатор кодека : XVID
Идентификатор кодека/Подсказка : XviD
Продолжительность : 1 ч. 42 м.
Битрейт : 2363 Кбит/сек
Ширина : 704 пикселя
Высота : 304 пикселя
Соотношение сторон : 2,35:1
Частота кадров : 25,000 кадров/сек
Цветовое пространство : YUV
Субдискретизация насыщенности : 4:2:0
Битовая глубина : 8 бит
Тип развёртки : Прогрессивная
Метод сжатия : С потерями
Бит/(Пиксели*Кадры) : 0.405
Размер потока : 1,71 Гбайт (78%)
Библиотека кодирования : XviD 73
Аудио #1
Идентификатор : 1
Формат : AC-3
Формат/Информация : Audio Coding 3
Расширение режима : CM (complete main)
Параметр Endianness формата : Big
Идентификатор кодека : 2000
Продолжительность : 1 ч. 42 м.
Вид битрейта : Постоянный
Битрейт : 192 Кбит/сек
Каналы : 2 канала
Расположение каналов : Front: L R
Частота : 48,0 КГц
Битовая глубина : 16 бит
Метод сжатия : С потерями
Размер потока : 141 Мбайт (6%)
Выравнивание : Разделение по промежуткам
Продолжительность промежутка : 40 мс. (1,00 видеокадр)
Время предзагрузки промежутка : 500 мс.
Аудио #2
Идентификатор : 2
Формат : AC-3
Формат/Информация : Audio Coding 3
Расширение режима : CM (complete main)
Параметр Endianness формата : Big
Идентификатор кодека : 2000
Продолжительность : 1 ч. 42 м.
Вид битрейта : Постоянный
Битрейт : 448 Кбит/сек
Каналы : 6 каналов
Расположение каналов : Front: L C R, Side: L R, LFE
Частота : 48,0 КГц
Битовая глубина : 16 бит
Метод сжатия : С потерями
Размер потока : 329 Мбайт (15%)
Выравнивание : Разделение по промежуткам
Продолжительность промежутка : 40 мс. (1,00 видеокадр)
Время предзагрузки промежутка : 500 мс.
Релиз группы:
--
[Профиль] [ЛС]

Создавать темы 06-Авг-2015 22:29 (спустя 1 месяц 15 дней)

Топик был перенесен из форума Фильмы до 2014 года в форум Фильмы до 2012 года
sergej644
 
Кто просматривает тему:

Форум Тема Автор Размер
Фильмы 2011 года Бандитки / Bandidas (Люк Бессон, Роберт Марк Кэмен / Luc Besson, Robert Mark Kamen) [2006, Франция, Мексика, США, боевик, комедия, криминал, вестерн, HDRip] AVO (Гаврилов, Иванов) TorrentFilm 1.47 GB
Отечественные cериалы Бандитский Петербург / сезоны 1-10 из 10 / серии 1-90 из 90 / (Владимир Бортко ,Андрей Бенкендорф, Влад Фурман, Виктор Сергеев,Валерий Мюльгаут) [2000-2007 г., Криминальная драма, DVDRip] Russian Mafia 43 GB
Отечественные cериалы Бандитский Петербург [S01-10] (2000-2007) DVDRip достали все 48.36 GB
Фильмы (HD Rips | 720p, 1080p) Бандиты / Bandits (2001) BDRip 1080p | P, A Russian Mafia 8.86 GB
Фильмы 2011 года Бандиты во времени / Time Bandits (1981) HDRip-AVC от ExKinoRay | P, A sergej644 3.92 GB
R.G.TorrentFilm Video В поисках золотого фаллоса / Контрабандист (Себастьян Аларкон) [1992 г., Комедия, криминал, SATRip] Один 777 747 MB
Отечественные cериалы Королева бандитов 2 [02х01-04 из 16] (2014) HDTVRip от Files-x Белочка 2.15 GB
Отечественные cериалы Королева бандитов 2 [02х01-08 из 16] (2014) HDTVRip от Files-x Белочка 4.3 GB
Показать сообщения:    

Текущее время: Сегодня 14:33

Часовой пояс: GMT



Вы не можете начинать темы
Вы не можете отвечать на сообщения
Вы не можете редактировать свои сообщения
Вы не можете удалять свои сообщения
Вы не можете голосовать в опросах
Вы не можете прикреплять файлы к сообщениям
Вы не можете скачивать файлы