Бандиты во времени / Time Bandits (1981) HDRip-AVC от ExKinoRay | P, A

 
Автор Сообщение

sergej644 ®

Пол:

Стаж: 4 года 11 месяцев

Сообщений: 6042

Откуда: Soviet Union



Награды: Нет

Торрент-статистика

Создавать темы 26-Дек-2014 22:18

[Цитировать]

Информация о фильме
Название: Бандиты во времени
Оригинальное название: Time Bandits
Год выхода: 1981
Жанр: фантастика, фэнтези, триллер, комедия, детектив, приключения, семейный
Режиссер: Терри Гиллиам / Terry Gilliam
В ролях: Джон Клиз, Шон Коннери, Шелли Дювалл, Кэтрин Хелмонд, Иэн Холм, Майкл Пэлин, Ральф Ричардсон, Питер Вон, Дэвид Уорнер, Дэвид Раппапорт
О фильме: Лента рассказывает о шести предприимчивых карликах, которые устраивают обычному мальчику по имени Кевин грандиозное путешествие по туннелям времени. Дело в том, что крошечные бандиты завладели волшебной картой, принадлежавшей их бывшему хозяину — Верховному Существу, сотворившему Мир.
С помощью заветной карты герои путешествуют из одной эпохи в другую и попадают в самые удивительные ситуации: они оказываются в компании подвыпившего Наполеона Бонапарта и царя Агамемнона, отправляются в плавание на корабле морского монстра и злополучном «Титанике», гостят в Шервудском лесу у Робин Гуда и пытаются выбраться из заточения Вечной Пустоты. Но помимо могущественного хозяина карты, ею хочет завладеть и Воплощение Зла, заточенное Высшим Существом в крепость Вечного Мрака.

Выпущено: США
Продолжительность: 01:56:25
Перевод: Профессиональный (многоголосый, закадровый) R5 | Профессионалльный (многоголосый, закадровый) Позитив-Мультимедиа | Авторский одноголосый С.Визгунова | Авторский одноголосый Ю.Толбина
Файл:
Качество: HDRip (AVC)
Видео: MPEG-4 AVC, 3000 Кбит/с, 1024х576, 23.976 кадр/с
Аудио: Русский (АС3, 6 ch, 448 Кбит/с), (АС3, 2 ch, 256 Кбит/с), (АС3, 2 ch, 224 Кбит/с), английский (АС3, 6 ch, 448 Кбит/с)
Субтитры: Русские, английские
Аудио №1: Русский (AC3, 6 ch, 448 Кбит/с) - Профессиональный многоголосый ((R5)
Аудио №2: Русский (AC3, 2 ch, 256 Кбит/с) - Профессиональный многоголосый (Позитив)
Аудио №3: Русский (AC3, 6 ch, 448 Кбит/с) - Авторский одноголосый (Визгунов)
Аудио №4: Русский (AC3, 2 ch, 224 Кбит/с) - Авторский одноголосый (Толбин)
Аудио №5: Английский (AC3, 6 ch, 448 Кбит/с)

MI

Общее
Уникальный идентификатор : 249781773079846129496806507939321352047 (0xBBEA3839E9607ABD89777BF706280F6F)
Полное имя : E:ФильмыBandity.vo.vremeni.1981.x264.HDRip.(AVC).ExKinoRay.mkv
Формат : Matroska
Размер файла : 3,92 Гбайт
Продолжительность : 1 ч. 56 м.
Общий поток : 4826 Кбит/сек
Название фильма : Bandity.vo.vremeni.1981.x264.HDRip.(AVC).ExKinoRay
Дата кодирования : UTC 2014-12-25 15:43:33
Программа кодирования : mkvmerge v4.0.0 ('The Stars were mine') сборка от Jun 6 2010 16:18:42
Библиотека кодирования : libebml v1.0.0 + libmatroska v1.0.0
Видео
Идентификатор : 1
Формат : AVC
Формат/Информация : Advanced Video Codec
Профиль формата : High@L4.1
Параметр CABAC формата : Да
Параметр ReFrames формата : 8 кадров
Идентификатор кодека : V_MPEG4/ISO/AVC
Продолжительность : 1 ч. 56 м.
Битрейт : 3000 Кбит/сек
Ширина : 1024 пикс.
Высота : 576 пикс.
Соотношение сторон : 16:9
Частота кадров : 23,976 кадр/сек
Цветовое пространство : YUV
Подвыборка цветности : 4:2:0
Битовая глубина : 8 бит
Тип развёртки : Прогрессивная
Бит/(Пиксели*Кадры) : 0.212
Размер потока : 2,36 Гбайт (60%)
Заголовок : Rip by Enigma-Vladislav71
Библиотека кодирования : x264 core 142 r2431 ac76440
Настройки программы : cabac=1 / ref=8 / deblock=1:-2:-2 / analyse=0x3:0x133 / me=umh / subme=11 / psy=1 / psy_rd=1.00:0.00 / mixed_ref=1 / me_range=32 / chroma_me=1 / trellis=2 / 8x8dct=1 / cqm=0 / deadzone=21,11 / fast_pskip=0 / chroma_qp_offset=-2 / threads=3 / lookahead_threads=1 / sliced_threads=0 / nr=0 / decimate=0 / interlaced=0 / bluray_compat=0 / constrained_intra=0 / bframes=8 / b_pyramid=2 / b_adapt=2 / b_bias=0 / direct=3 / weightb=1 / open_gop=0 / weightp=2 / keyint=240 / keyint_min=23 / scenecut=40 / intra_refresh=0 / rc_lookahead=40 / rc=2pass / mbtree=0 / bitrate=3000 / ratetol=1.0 / qcomp=0.60 / qpmin=10 / qpmax=51 / qpstep=4 / cplxblur=20.0 / qblur=0.5 / vbv_maxrate=62500 / vbv_bufsize=78125 / nal_hrd=none / filler=0 / ip_ratio=1.40 / pb_ratio=1.30 / aq=2:1.00
Язык : English
Аудио #1
Идентификатор : 2
Формат : AC-3
Формат/Информация : Audio Coding 3
Расширение режима : CM (complete main)
Идентификатор кодека : A_AC3
Продолжительность : 1 ч. 56 м.
Вид битрейта : Постоянный
Битрейт : 448 Кбит/сек
Каналы : 6 каналов
Расположение каналов : Front: L C R, Side: L R, LFE
Частота : 48,0 КГц
Битовая глубина : 16 бит
Метод сжатия : С потерями
Размер потока : 373 Мбайт (9%)
Заголовок : Профессиональный многоголосый (R5)
Язык : Russian
Аудио #2
Идентификатор : 3
Формат : AC-3
Формат/Информация : Audio Coding 3
Расширение режима : CM (complete main)
Идентификатор кодека : A_AC3
Продолжительность : 1 ч. 56 м.
Вид битрейта : Постоянный
Битрейт : 256 Кбит/сек
Каналы : 2 канала
Расположение каналов : Front: L R
Частота : 48,0 КГц
Битовая глубина : 16 бит
Метод сжатия : С потерями
Размер потока : 213 Мбайт (5%)
Заголовок : Профессиональный многоголосый (Позитив)
Язык : Russian
Аудио #3
Идентификатор : 4
Формат : AC-3
Формат/Информация : Audio Coding 3
Расширение режима : CM (complete main)
Идентификатор кодека : A_AC3
Продолжительность : 1 ч. 56 м.
Вид битрейта : Постоянный
Битрейт : 448 Кбит/сек
Каналы : 6 каналов
Расположение каналов : Front: L C R, Side: L R, LFE
Частота : 48,0 КГц
Битовая глубина : 16 бит
Метод сжатия : С потерями
Размер потока : 373 Мбайт (9%)
Заголовок : Авторский одноголосый (Визгунов)
Язык : Russian
Аудио #4
Идентификатор : 5
Формат : AC-3
Формат/Информация : Audio Coding 3
Расширение режима : CM (complete main)
Идентификатор кодека : A_AC3
Продолжительность : 1 ч. 56 м.
Вид битрейта : Постоянный
Битрейт : 224 Кбит/сек
Каналы : 2 канала
Расположение каналов : Front: L R
Частота : 48,0 КГц
Битовая глубина : 16 бит
Метод сжатия : С потерями
Размер потока : 187 Мбайт (5%)
Заголовок : Авторский одноголосый (Толбин)
Язык : Russian
Аудио #5
Идентификатор : 6
Формат : AC-3
Формат/Информация : Audio Coding 3
Расширение режима : CM (complete main)
Идентификатор кодека : A_AC3
Продолжительность : 1 ч. 56 м.
Вид битрейта : Постоянный
Битрейт : 448 Кбит/сек
Каналы : 6 каналов
Расположение каналов : Front: L C R, Side: L R, LFE
Частота : 48,0 КГц
Битовая глубина : 16 бит
Метод сжатия : С потерями
Размер потока : 373 Мбайт (9%)
Заголовок : Английский
Язык : English
Текст #1
Идентификатор : 7
Формат : UTF-8
Идентификатор кодека : S_TEXT/UTF8
Идентификатор кодека/Информация : UTF-8 Plain Text
Заголовок : R5
Язык : Russian
Текст #2
Идентификатор : 8
Формат : UTF-8
Идентификатор кодека : S_TEXT/UTF8
Идентификатор кодека/Информация : UTF-8 Plain Text
Заголовок : Позитив
Язык : Russian
Текст #3
Идентификатор : 9
Формат : UTF-8
Идентификатор кодека : S_TEXT/UTF8
Идентификатор кодека/Информация : UTF-8 Plain Text
Заголовок : English
Язык : English
Меню
00:00:00.000 : en:00:00:00.000
00:05:37.503 : en:00:05:37.503
00:14:58.664 : en:00:14:58.664
00:23:06.384 : en:00:23:06.384
00:27:36.955 : en:00:27:36.955
00:38:43.454 : en:00:38:43.454
00:45:13.043 : en:00:45:13.043
00:53:07.684 : en:00:53:07.684
00:58:05.181 : en:00:58:05.181
01:04:59.161 : en:01:04:59.161
01:11:11.033 : en:01:11:11.033
01:16:43.732 : en:01:16:43.732
01:20:14.643 : en:01:20:14.643
01:28:48.690 : en:01:28:48.690
01:37:00.948 : en:01:37:00.948
01:50:12.605 : en:01:50:12.605

Скриншоты


Авторы релиза:
[Профиль] [ЛС]

Создавать темы 06-Авг-2015 22:53 (спустя 7 месяцев 12 дней)

Топик был перенесен из форума Фильмы до 2014 года в форум Фильмы до 2012 года
sergej644
 
Кто просматривает тему:

Форум Тема Автор Размер
Фильмы 2011 года Бандитки / Bandidas (Люк Бессон, Роберт Марк Кэмен / Luc Besson, Robert Mark Kamen) [2006, Франция, Мексика, США, боевик, комедия, криминал, вестерн, HDRip] AVO (Гаврилов, Иванов) TorrentFilm 1.47 GB
Отечественные cериалы Бандитский Петербург / сезоны 1-10 из 10 / серии 1-90 из 90 / (Владимир Бортко ,Андрей Бенкендорф, Влад Фурман, Виктор Сергеев,Валерий Мюльгаут) [2000-2007 г., Криминальная драма, DVDRip] Russian Mafia 43 GB
Отечественные cериалы Бандитский Петербург [S01-10] (2000-2007) DVDRip достали все 48.36 GB
Фильмы (HD Rips | 720p, 1080p) Бандиты / Bandits (2001) BDRip 1080p | P, A Russian Mafia 8.86 GB
Фильмы 2011 года Бандиты / Бродяги / Truands (Фредерик Шёндёрфер / Frédéric Schoendoerffer) [2006, Франция, триллер, криминал, DVDRip] MVO (Автор студия) + Original Fre TorrentFilm 2.18 GB
R.G.TorrentFilm Video В поисках золотого фаллоса / Контрабандист (Себастьян Аларкон) [1992 г., Комедия, криминал, SATRip] Один 777 747 MB
Отечественные cериалы Королева бандитов 2 [02х01-04 из 16] (2014) HDTVRip от Files-x Белочка 2.15 GB
Отечественные cериалы Королева бандитов 2 [02х01-08 из 16] (2014) HDTVRip от Files-x Белочка 4.3 GB
Показать сообщения:    

Текущее время: Сегодня 10:34

Часовой пояс: GMT



Вы не можете начинать темы
Вы не можете отвечать на сообщения
Вы не можете редактировать свои сообщения
Вы не можете удалять свои сообщения
Вы не можете голосовать в опросах
Вы не можете прикреплять файлы к сообщениям
Вы не можете скачивать файлы