Бандитский Петербург [S01-10] (2000-2007) DVDRip

 
Автор Сообщение

достали все ®

Пол:

Стаж: 2 года 3 месяца

Сообщений: 6778



Награды: 12 (Подробнее)

Mega Seeder 1 (Количество: 1) Mega Releaser 1 (Количество: 1) Mega Releaser 2 (Количество: 1)
Торрент-статистика

Создавать темы 10-Июл-2016 13:32

[Цитировать]

Оригинальное название: Бандитский Петербург
Год выпуска: 2000-2007
Жанр: Детектив, криминал, драма
Выпущено: Россия, КиноМост, 2-Б-2, Медиа-Стелс
Режиссер: Владимир Бортко
В ролях: Лев Борисов, Александр Домогаров ст., Кирилл Лавров, Ольга Дроздова, Дмитрий Певцов, Евгений Сидихин, Андрей Толубеев, Евгения Крюкова, Армен Джигарханян, Игорь Лифанов, Евгений Дятлов, Алексей Серебряков, Олег Басилашвили, Зинаида Шарко, Алексей Девотченко, Леонид Максимов, Николай Рудик, Михаил Пореченков, Александр Лыков, Андрей Краско, Анастасия Мельникова, Роман Агеев, Пётр Вельяминов, Юрий Ковалев, Сергей Барковский, Анатолий Петров, Александр Большаков, Виктор Сухоруков, Олеся Судзиловская, Михаил Разумовский, Анна Самохина, Юрий Цурило, Ян Цапник, Николай Чиндяйкин, Юрий Ицков, Александр Песков, Дмитрий Щербина, Константин Воробьёв, Кирилл Плетнёв
О фильме: Журналист Серёгин собирал материалы по делу об обычной квартирной краже, но вышел на более серьёзное преступление. Работая в одиночку и пытаясь самостоятельно во всем разобраться, он оказывается вовлечённым в опаснейшие события. Рассказывается о пропаже драгоценной картины Рембрандта "Эгина", за которой "охотятся" коррумпированные менты. Вор в законе Михеев по кличке Барон (Лавров), немолодой уже человек, становится соучастником преступления, но его подставляют, и он попадает в тюрьму...
Качество: DVDRip
Видео: XviD, ~ 1550 Кбит/с, 688х512
Аудио: МР3, 2 ch, 128 Кбит/с
Продолжительность: 90 х ~ 00:46:00
Язык: Русский

Mediainfo

Полное имя E:Banditskij.Peterburg.[tahiy]Season 10Banditskij.Peterburg.s10e12.[tahiy].avi
Формат : AVI
Формат/Информация : Audio Video Interleave
Размер файла : 550 Мбайт
Продолжительность : 46 м.
Общий поток : 1661 Кбит/сек
Программа кодирования : VirtualDubMod 1.5.10.3 | www.virtualdub-fr.org || (build 2550/release)
Библиотека кодирования : VirtualDubMod build 2550/release
Видео
Идентификатор : 0
Формат : MPEG-4 Visual
Профиль формата : Advanced Simple@L5
Параметр BVOP формата : 1
Параметр QPel формата : Нет
Параметр GMC формата : Без точки перехода
Параметр матрицы формата : Default (MPEG)
Идентификатор кодека : XVID
Идентификатор кодека/Подсказка : XviD
Продолжительность : 46 м.
Битрейт : 1524 Кбит/сек
Ширина : 688 пикселей
Высота : 512 пикселей
Соотношение сторон : 4:3
Частота кадров : 25,000 кадров/сек
Цветовое пространство : YUV
Субдискретизация насыщенности : 4:2:0
Битовая глубина : 8 бит
Тип развёртки : Прогрессивная
Метод сжатия : С потерями
Бит/(Пиксели*Кадры) : 0.173
Размер потока : 505 Мбайт (92%)
Библиотека кодирования : XviD 73
Аудио
Идентификатор : 1
Формат : MPEG Audio
Версия формата : Version 1
Профиль формата : Layer 3
Режим : Joint stereo
Расширение режима : MS Stereo
Идентификатор кодека : 55
Идентификатор кодека/Подсказка : MP3
Продолжительность : 46 м.
Вид битрейта : Постоянный
Битрейт : 128 Кбит/сек
Каналы : 2 канала
Частота : 48,0 КГц
Метод сжатия : С потерями
Размер потока : 42,4 Мбайт (8%)
Выравнивание : Соединение по промежуткам
Продолжительность промежутка : 40 мс. (1,00 видеокадр)
Время предзагрузки промежутка : 504 мс.
Библиотека кодирования : LAME3.99r
Настройки программы : -m j -V 4 -q 2 -lowpass 17 -b 128

[Профиль] [ЛС]
Кто просматривает тему:

Форум Тема Автор Размер
Отечественные cериалы Прости меня, мама / Бандит [01-16 из 16] (2014) WEB-DLRip-AVC от ExKinoRay К@питан 9.81 GB
Показать сообщения:    

Текущее время: Сегодня 21:11

Часовой пояс: GMT



Вы не можете начинать темы
Вы не можете отвечать на сообщения
Вы не можете редактировать свои сообщения
Вы не можете удалять свои сообщения
Вы не можете голосовать в опросах
Вы не можете прикреплять файлы к сообщениям
Вы не можете скачивать файлы