Бандитки / Bandidas (Люк Бессон, Роберт Марк Кэмен / Luc Besson, Robert Mark Kamen) [2006, Франция, Мексика, США, боевик, комедия, криминал, вестерн, HDRip] AVO (Гаврилов, Иванов)

 
Автор Сообщение

TorrentFilm ®

Пол:

Стаж: 2 года

Сообщений: 7741



Награды: Нет

Торрент-статистика

Создавать темы 17-Дек-2014 02:35

[Цитировать]

Бандитки / Bandidas Страна: Франция, Мексика, США
Жанр: боевик, комедия, криминал, вестерн
Год выпуска: 2006
Продолжительность: 01:32:46
Перевод 1: Авторский (одноголосый закадровый) Андрей Гаврилов
Перевод 2: Авторский (одноголосый закадровый) Михаил Иванов
Cубтитры: нет
Режиссер: Люк Бессон, Роберт Марк Кэмен / Luc Besson, Robert Mark Kamen
В ролях: Пенелопа Крус, Сальма Хайек, Стив Зан, Дуайт Йоакам, Денис Арндт, Одра Блейзер, Сэм Шепард, Исмаэль `Ист` Карло, Гэри Сервантес, Хосе Мария Негри, Эдгар Вивар
Описание: Мексика, 1888 год. Две очаровательные налетчицы — образованная европейка и грубоватая мексиканка — наводят ужас на банки Дикого Запада. Никто не может противостоять их изобретательности и неустрашимости. И, тем более, никто не может устоять перед их красотой.

Качество видео: НDRip
Формат видео: AVI
Видео кодек: XviD
Аудио кодек: AC3
Видео: 720x304 (2.37:1), 23.976 fps, XviD build 73 ~1484 kbps avg, 0.28 bit/pixel
Аудио 1: 48 kHz, AC3 Dolby Digital, 3/2 (L,C,R,l,r) + LFE ch, ~384 kbps Гаврилов
Аудио 2: 48 kHz, AC3 Dolby Digital, 3/2 (L,C,R,l,r) + LFE ch, ~384 kbps Иванов

Спасибо

за перевод Гаврилова спасибо пользователям форума hdtracker: spacenoise, therox, dunhill200, Chistobaev, lexal, shitman82, AVO-Detector, Pain_70, kinobbk, WhiteHorse, Guyver, carter64, feldeger, GaryH, karantin66, Dr. Destructo, Volfgang77, hulahup, olegsoleg, КрисТо161, Role, rydanes, Vimann. за дорогу спасибо xxL32
за Иванова спасибо budulai-8
.

MediaInfo

Полное имя : Бандитки 2006.avi
Формат : AVI
Формат/Информация : Audio Video Interleave
Размер файла : 1,47 Гбайт
Продолжительность : 1 ч. 32 м.
Общий поток : 2267 Кбит/сек
Программа кодирования : VirtualDubMod 1.5.10.2 (build 2540/release)
Видео
Идентификатор : 0
Формат : MPEG-4 Visual
Профиль формата : Advanced Simple@L5
Параметр BVOP формата : 2
Параметр QPel формата : Нет
Параметр GMC формата : Без точки перехода
Параметр матрицы формата : Выборочная
Идентификатор кодека : XVID
Идентификатор кодека/Подсказка : XviD
Продолжительность : 1 ч. 32 м.
Битрейт : 1486 Кбит/сек
Ширина : 720 пикселей
Высота : 304 пикселя
Соотношение сторон : 2,35:1
Частота кадров : 23,976 кадра/сек
Цветовое пространство : YUV
Субдискретизация насыщенности : 4:2:0
Битовая глубина : 8 бит
Тип развёртки : Прогрессивная
Метод сжатия : С потерями
Бит/(Пиксели*Кадры) : 0.283
Размер потока : 986 Мбайт (66%)
Библиотека кодирования : XviD 73
Аудио #1
Идентификатор : 1
Формат : AC-3
Формат/Информация : Audio Coding 3
Расширение режима : CM (complete main)
Параметр Endianness формата : Big
Идентификатор кодека : 2000
Продолжительность : 1 ч. 32 м.
Вид битрейта : Постоянный
Битрейт : 384 Кбит/сек
Каналы : 6 каналов
Расположение каналов : Front: L C R, Side: L R, LFE
Частота : 48,0 КГц
Битовая глубина : 16 бит
Метод сжатия : С потерями
Размер потока : 255 Мбайт (17%)
Выравнивание : Разделение по промежуткам
Продолжительность промежутка : 42 мс. (1,00 видеокадр)
Время предзагрузки промежутка : 500 мс.
Заголовок : Gavrilov
Аудио #2
Идентификатор : 2
Формат : AC-3
Формат/Информация : Audio Coding 3
Расширение режима : CM (complete main)
Параметр Endianness формата : Big
Идентификатор кодека : 2000
Продолжительность : 1 ч. 32 м.
Вид битрейта : Постоянный
Битрейт : 384 Кбит/сек
Каналы : 6 каналов
Расположение каналов : Front: L C R, Side: L R, LFE
Частота : 48,0 КГц
Битовая глубина : 16 бит
Метод сжатия : С потерями
Размер потока : 254 Мбайт (17%)
Выравнивание : Разделение по промежуткам
Продолжительность промежутка : 42 мс. (1,00 видеокадр)
Время предзагрузки промежутка : 500 мс.
Заголовок : Ivanov

Скриншоты

[Профиль] [ЛС]

Создавать темы 06-Авг-2015 22:54 (спустя 7 месяцев 20 дней)

Топик был перенесен из форума Фильмы до 2014 года в форум Фильмы до 2012 года
sergej644
 
Кто просматривает тему:

Форум Тема Автор Размер
Отечественные cериалы Бандитский Петербург / сезоны 1-10 из 10 / серии 1-90 из 90 / (Владимир Бортко ,Андрей Бенкендорф, Влад Фурман, Виктор Сергеев,Валерий Мюльгаут) [2000-2007 г., Криминальная драма, DVDRip] Russian Mafia 43 GB
Отечественные cериалы Бандитский Петербург [S01-10] (2000-2007) DVDRip достали все 48.36 GB
Фильмы (HD Rips | 720p, 1080p) Бандиты / Bandits (2001) BDRip 1080p | P, A Russian Mafia 8.86 GB
Фильмы 2011 года Бандиты / Бродяги / Truands (Фредерик Шёндёрфер / Frédéric Schoendoerffer) [2006, Франция, триллер, криминал, DVDRip] MVO (Автор студия) + Original Fre TorrentFilm 2.18 GB
Фильмы 2011 года Бандиты во времени / Time Bandits (1981) HDRip-AVC от ExKinoRay | P, A sergej644 3.92 GB
R.G.TorrentFilm Video В поисках золотого фаллоса / Контрабандист (Себастьян Аларкон) [1992 г., Комедия, криминал, SATRip] Один 777 747 MB
Отечественные cериалы Королева бандитов 2 [02х01-04 из 16] (2014) HDTVRip от Files-x Белочка 2.15 GB
Отечественные cериалы Королева бандитов 2 [02х01-08 из 16] (2014) HDTVRip от Files-x Белочка 4.3 GB
Показать сообщения:    

Текущее время: Сегодня 04:29

Часовой пояс: GMT



Вы не можете начинать темы
Вы не можете отвечать на сообщения
Вы не можете редактировать свои сообщения
Вы не можете удалять свои сообщения
Вы не можете голосовать в опросах
Вы не можете прикреплять файлы к сообщениям
Вы не можете скачивать файлы