Банда грабителей / Band of Robbers (2015) WEB-DL 720p | L2

 
Автор Сообщение

достали все ®

Пол:

Стаж: 2 года 3 месяца

Сообщений: 6778



Награды: 12 (Подробнее)

За внесенный вклад в развитие сайта (Количество: 1) Top Releaser 4 (Количество: 1) Mega Seeder 3 (Количество: 1)
Торрент-статистика

Создавать темы 22-Янв-2016 16:42

[Цитировать]

Информация о фильме
Название: Банда грабителей
Оригинальное название: Band of Robbers
Год выхода: 2015
Жанр: триллер, комедия, криминал, приключения
Режиссер: Аарон Ни, Адам Ни
В ролях: Кайл Галлнер, Адам Ни, Мэттью Грей Гублер, Хэннибал Бёресс, Мелисса Бенойст, Дэниэл Эдвард Мора, Стивен Лэнг, Эрик Кристиан Олсен, Джонни Пембертон, Бет Грант
О фильме: Мелкий уголовник Гекльберри Финн выходит из заключения и хочет начать новую жизнь с чистого листа. Его планы нарушает друг детства, горе-полицейский, Том Сойер, до сих пор не отказавшийся от детской мечты — найти сокровища.

Выпущено: США / Blacklist Digital, Lola's Productions, Tilted Windmill Productions, Torn Sky Entertainment, Whitewater Films
Продолжительность: 01:35:30
Озвучивание: Любительское (двухголосое) [Parovoz Production]
Примечание: Релиз без рекламы.
Файл
Формат: MKV
Качество: WEB-DL 720p
Видео: MPEG-4 AVC, 3971 kb/s, 1280x534
Аудио: Russian: AC3, 192 kb/s (2 ch) / English: AC3, 384 kb/s (6 ch)
Субтитры: English

MI

Format : Matroska
Format version : Version 2
File size : 3.09 GiB
Duration : 1h 35mn
Overall bit rate : 4 639 Kbps
Encoded date : UTC 2016-01-22 15:33:30
Writing application : mkvmerge v7.8.0 ('River Man') 32bit built on Apr 3 2015 12:11:22
Writing library : libebml v1.3.1 + libmatroska v1.4.2
Video
ID : 1
Format : AVC
Format/Info : Advanced Video Codec
Format profile : Main@L3.1
Format settings, CABAC : No
Format settings, ReFrames : 2 frames
Codec ID : V_MPEG4/ISO/AVC
Duration : 1h 35mn
Bit rate : 3 971 Kbps
Width : 1 280 pixels
Height : 534 pixels
Display aspect ratio : 2.40:1
Frame rate mode : Constant
Frame rate : 23.976 fps
Color space : YUV
Chroma subsampling : 4:2:0
Bit depth : 8 bits
Scan type : Progressive
Bits/(Pixel*Frame) : 0.242
Stream size : 2.65 GiB (86%)
Language : English
Default : Yes
Forced : No
Color range : Limited
Color primaries : BT.709
Transfer characteristics : BT.709
Matrix coefficients : BT.709
Audio #1
ID : 2
Format : AC-3
Format/Info : Audio Coding 3
Mode extension : CM (complete main)
Format settings, Endianness : Big
Codec ID : A_AC3
Duration : 1h 35mn
Bit rate mode : Constant
Bit rate : 192 Kbps
Channel(s) : 2 channels
Channel positions : Front: L R
Sampling rate : 48.0 KHz
Bit depth : 16 bits
Compression mode : Lossy
Stream size : 131 MiB (4%)
Language : Russian
Default : Yes
Forced : No
Audio #2
ID : 3
Format : AC-3
Format/Info : Audio Coding 3
Mode extension : CM (complete main)
Format settings, Endianness : Big
Codec ID : A_AC3
Duration : 1h 35mn
Bit rate mode : Constant
Bit rate : 384 Kbps
Channel(s) : 6 channels
Channel positions : Front: L C R, Side: L R, LFE
Sampling rate : 48.0 KHz
Bit depth : 16 bits
Compression mode : Lossy
Stream size : 262 MiB (8%)
Language : English
Default : No
Forced : No
Text
ID : 4
Format : UTF-8
Codec ID : S_TEXT/UTF8
Codec ID/Info : UTF-8 Plain Text
Language : English
Default : No
Forced : No
Menu
00:00:00.000 : en:Chapter 1
00:09:08.000 : en:Chapter 2
00:18:28.000 : en:Chapter 3
00:32:23.000 : en:Chapter 4
00:41:45.000 : en:Chapter 5
00:50:57.000 : en:Chapter 6
01:00:11.000 : en:Chapter 7
01:10:02.000 : en:Chapter 8
01:22:12.000 : en:Chapter 9
01:32:04.000 : en:Chapter 10

Скриншоты



[Профиль] [ЛС]
Кто просматривает тему:

Показать сообщения:    

Текущее время: Сегодня 10:55

Часовой пояс: GMT



Вы не можете начинать темы
Вы не можете отвечать на сообщения
Вы не можете редактировать свои сообщения
Вы не можете удалять свои сообщения
Вы не можете голосовать в опросах
Вы не можете прикреплять файлы к сообщениям
Вы не можете скачивать файлы