Бал цветов (Елена Федорова) [1992, Россия, Рисованный мультфильм, VHSRip]

 
Автор Сообщение

TorrentFilm ®

Пол:

Стаж: 2 года

Сообщений: 7741



Награды: Нет

Торрент-статистика

Создавать темы 31-Дек-2015 00:09

[Цитировать]

Бал цветов
Страна: Россия
Жанр: Рисованный мультфильм
Продолжительность: 00:08:46
Год выпуска: 1992
Русские субтитры: нет
Режиссёр: Елена Федорова
Описание: Балетная фантазия для детей на музыку П.И.Чайковского.
Доп. информация: «Кристмас Филмз»
сценарист Янис Закье
художник-постановщик Е.Федорова
аниматоры М.Воскъянц,Г.Зеброва,В.Шевченко
оператор Н.Михайлова
Раздача группы:
Качество: VHSRip
Формат: AVI
Видео: 704x528 (1.33:1), 25 fps, XviD build 50 ~1541 kbps avg, 0.17 bit/pixel
Аудио: 44.100 kHz, MPEG Layer 3, 2 ch, ~192.00 kbps avg
Субтитры: нет

Подробные технические данные

Format : AVIFormat/Info : Audio Video InterleaveFile size : 110 MiBDuration : 8mn 46sOverall bit rate : 1 746 KbpsWriting application : MEncoder SVN-r30881(20100311-gcc4.3.3)Writing library : MPlayer
VideoID : 0Format : MPEG-4 VisualFormat profile : Advanced Simple@L5Format settings, BVOP : 2Format settings, QPel : NoFormat settings, GMC : No warppointsFormat settings, Matrix : Default (H.263)Codec ID : XVIDCodec ID/Hint : XviDDuration : 8mn 46sBit rate : 1 542 KbpsWidth : 704 pixelsHeight : 528 pixelsDisplay aspect ratio : 4:3Original display aspect ratio : 4:3Frame rate : 25.000 fpsColor space : YUVChroma subsampling : 4:2:0Bit depth : 8 bitsScan type : ProgressiveCompression mode : LossyBits/(Pixel*Frame) : 0.166Stream size : 96.7 MiB (88%)Writing library : XviD 1.2.1 (UTC 2008-12-04)
AudioID : 1Format : MPEG AudioFormat version : Version 1Format profile : Layer 3Mode : Joint stereoMode extension : MS StereoCodec ID : 55Codec ID/Hint : MP3Duration : 8mn 46sBit rate mode : ConstantBit rate : 192 KbpsChannel(s) : 2 channelsSampling rate : 44.1 KHzCompression mode : LossyDelay relative to video : 40msStream size : 12.0 MiB (11%)Alignment : Aligned on interleavesInterleave, duration : 26 ms (0.65 video frame)Interleave, preload duration : 522 msWriting library : LAME3.98

Скриншоты

[Профиль] [ЛС]
Кто просматривает тему:

Показать сообщения:    

Текущее время: Сегодня 02:25

Часовой пояс: GMT



Вы не можете начинать темы
Вы не можете отвечать на сообщения
Вы не можете редактировать свои сообщения
Вы не можете удалять свои сообщения
Вы не можете голосовать в опросах
Вы не можете прикреплять файлы к сообщениям
Вы не можете скачивать файлы