Бал монстров / Monster's Ball (2001) BDRip 720p by msltel | P

 
Автор Сообщение

sergej644 ®

Пол:

Стаж: 4 года 11 месяцев

Сообщений: 6046

Откуда: Soviet Union



Награды: Нет

Торрент-статистика

Создавать темы 10-Фев-2015 09:19

[Цитировать]

Год выпуска: 2001
Страна: США
Жанр: Драма, мелодрама
Продолжительность: 01:52:42
Перевод: Профессиональный многоголосый
Субтитры: русские, английские
Режиссёр: Марк Форстер
В ролях: Билли Боб Торнтон, Холли Берри, Тейлор Симпсон, Гэбриэлль Уитчер, Хит Леджер, Эмбер Рулс, Питер Бойл, Чарльз Кауэн мл., Тейлор Лагранж, Мос Деф, Энтони Бин, Френсин Сигал, Джон МакКоннелл, Маркус Лайл Браун, Мило Аддика, Леа Лофтин, Коронджи Кэлхун, Шон ’Пи Дидди’ Комбс, Ларри Ли, Трой Порет, Пол Смит, Маршалл Кэйн, Уилл Рокос, Энтони Майкл Фредерик, Джон Уилмот, Дэннис Клементс, Стефани Клер, Джеймс Хейвен, Ричи Монтгомери, Клара Инфинити Дэниелс, Кэрол Саттон, Бернард Джонсон
Описание: У Хэнка редкая профессия, которой из поколения в поколение занимаются мужчины в его семье. Он - палач, включающий рубильник электрического стула. Хэнк надеется, что сын Санни пойдёт по его стопам. Один из приговорённых к смерти дарит Санни свой рисунок. Санни не смог привести приговор в действие, что вызывает гнев отца и тот выгоняет его из дома. В результате Санни совершает самоубийство на глазах отца. Хэнк уходит с работы и впадает в депрессию, пока однажды не встречает Летицию и не влюбляется в неё. Но в какой-то момент она узнаёт, что Хэнк участвовал в казни её мужа...

Качество: BDRip 720p Сравнение с исходником
Формат: MKV
Видео кодек: H.264
Аудио кодек: AC3
Видео: 1280x542, 4149 Кбит/с, 23.976 кадр/с, 0.249 bpp
Аудио 1: русский, AC3, 448 kbps, 6 ch, 48 kHz [профессиональный многоголосый, R5]
Аудио 2: русский, AC3, 448 kbps, 6 ch, 48 kHz [профессиональный многоголосый, Карусель]
Аудио 3: русский, AC3, 384 kbps, 6 ch, 48 kHz [профессиональный многоголосый, LDV]
Аудио 4: английский, AC3, 448 kbps, 6 ch, 48 kHz [оригинал]
Аудио 5: английский, AC3, 192 kbps, 2 ch, 48 kHz [комментарий]
Имеются неименованные главы/чаптеры.

Награды

«Золотой сателлит» за оригинальный сценарий, призы Национального совета обозревателей за мужскую (Билли Боб Торнтон — также за участие в лентах «Человек, которого там не было» / The Man Who Wasn’t There и «Бандиты» / Bandits) и женскую (Хэлли Берри) роли, премия за лучший иностранный фильм в Японии по итогам 2002 года
Британская академия, 2003 год
Номинации (1):
Лучшая женская роль (Холли Берри)
Оскар, 2002 год
Победитель (1):
Лучшая женская роль (Холли Берри)
Номинации (1):
Лучший сценарий
Золотой глобус, 2002 год
Номинации (1):
Лучшая женская роль (драма) (Холли Берри)
Премия канала «MTV», 2002 год
Номинации (1):
Лучшая женская роль (Холли Берри)
Берлинский кинофестиваль, 2002 год
Победитель (1):
Серебряный Медведь за лучшую женскую роль (Холли Берри)
Номинации (1):
Золотой Медведь
Премия Гильдии актеров, 2002 год
Победитель (1):
Лучшая женская роль (Холли Берри)

MediaInfo

frame I:1127 Avg QP:13.33 size: 90139
frame P:31055 Avg QP:14.50 size: 44739
frame B:129963 Avg QP:16.10 size: 16296
Общее
Уникальный идентификатор : 178818492908993753557870560551954784900 (0x86873062FBAEB050960CFD2810EFA284)
Полное имя : D:VideoBal monstrov.2001.BDRip.720p.mkv
Формат : Matroska
Версия формата : Version 4 / Version 2
Размер файла : 4,87 Гбайт
Продолжительность : 1 ч. 52 м.
Общий поток : 6192 Кбит/сек
Дата кодирования : UTC 2014-10-02 14:35:32
Программа кодирования : mkvmerge v6.9.1 ('Blue Panther') 64bit built on Apr 18 2014 18:23:38
Библиотека кодирования : libebml v1.3.0 + libmatroska v1.4.1
Видео
Идентификатор : 1
Формат : AVC
Формат/Информация : Advanced Video Codec
Профиль формата : High@L4.1
Параметр CABAC формата : Да
Параметр ReFrames формата : 9 кадров
Идентификатор кодека : V_MPEG4/ISO/AVC
Продолжительность : 1 ч. 52 м.
Битрейт : 4149 Кбит/сек
Ширина : 1280 пикселей
Высота : 542 пикселя
Соотношение сторон : 2,35:1
Режим частоты кадров : Постоянный
Частота кадров : 23,976 кадра/сек
Цветовое пространство : YUV
Субдискретизация насыщенности : 4:2:0
Битовая глубина : 8 бит
Тип развёртки : Прогрессивная
Бит/(Пиксели*Кадры) : 0.249
Размер потока : 3,27 Гбайт (67%)
Заголовок : BDRip -- STarankov
Библиотека кодирования : x264 core 142 r2431 ac76440
Настройки программы : cabac=1 / ref=9 / deblock=1:-1:-1 / analyse=0x3:0x113 / me=umh / subme=10 / psy=1 / psy_rd=1.00:0.15 / mixed_ref=1 / me_range=32 / chroma_me=1 / trellis=2 / 8x8dct=1 / cqm=0 / deadzone=21,11 / fast_pskip=0 / chroma_qp_offset=-3 / threads=6 / lookahead_threads=1 / sliced_threads=0 / nr=0 / decimate=1 / interlaced=0 / bluray_compat=0 / constrained_intra=0 / bframes=8 / b_pyramid=2 / b_adapt=2 / b_bias=0 / direct=1 / weightb=1 / open_gop=0 / weightp=2 / keyint=230 / keyint_min=23 / scenecut=40 / intra_refresh=0 / rc_lookahead=40 / rc=crf / mbtree=0 / crf=16.0 / qcomp=0.60 / qpmin=0 / qpmax=69 / qpstep=4 / vbv_maxrate=40000 / vbv_bufsize=50000 / crf_max=0.0 / nal_hrd=none / filler=0 / ip_ratio=1.40 / pb_ratio=1.30 / aq=1:1.00
Язык : English
Default : Да
Forced : Нет
Аудио #1
Идентификатор : 2
Формат : AC-3
Формат/Информация : Audio Coding 3
Расширение режима : CM (complete main)
Параметр Endianness формата : Big
Идентификатор кодека : A_AC3
Продолжительность : 1 ч. 52 м.
Вид битрейта : Постоянный
Битрейт : 448 Кбит/сек
Каналы : 6 каналов
Расположение каналов : Front: L C R, Side: L R, LFE
Частота : 48,0 КГц
Битовая глубина : 16 бит
Метод сжатия : С потерями
Размер потока : 361 Мбайт (7%)
Заголовок : MVO (R5)
Язык : Russian
Default : Да
Forced : Нет
Аудио #2
Идентификатор : 3
Формат : AC-3
Формат/Информация : Audio Coding 3
Расширение режима : CM (complete main)
Параметр Endianness формата : Big
Идентификатор кодека : A_AC3
Продолжительность : 1 ч. 52 м.
Вид битрейта : Постоянный
Битрейт : 448 Кбит/сек
Каналы : 6 каналов
Расположение каналов : Front: L C R, Side: L R, LFE
Частота : 48,0 КГц
Битовая глубина : 16 бит
Метод сжатия : С потерями
Размер потока : 361 Мбайт (7%)
Заголовок : MVO (Карусель)
Язык : Russian
Default : Нет
Forced : Нет
Аудио #3
Идентификатор : 4
Формат : AC-3
Формат/Информация : Audio Coding 3
Расширение режима : CM (complete main)
Параметр Endianness формата : Big
Идентификатор кодека : A_AC3
Продолжительность : 1 ч. 52 м.
Вид битрейта : Постоянный
Битрейт : 384 Кбит/сек
Каналы : 6 каналов
Расположение каналов : Front: L C R, Side: L R, LFE
Частота : 48,0 КГц
Битовая глубина : 16 бит
Метод сжатия : С потерями
Размер потока : 310 Мбайт (6%)
Заголовок : MVO (LDV)
Язык : Russian
Default : Нет
Forced : Нет
Аудио #4
Идентификатор : 5
Формат : AC-3
Формат/Информация : Audio Coding 3
Расширение режима : CM (complete main)
Параметр Endianness формата : Big
Идентификатор кодека : A_AC3
Продолжительность : 1 ч. 52 м.
Вид битрейта : Постоянный
Битрейт : 448 Кбит/сек
Каналы : 6 каналов
Расположение каналов : Front: L C R, Side: L R, LFE
Частота : 48,0 КГц
Битовая глубина : 16 бит
Метод сжатия : С потерями
Размер потока : 361 Мбайт (7%)
Заголовок : Original
Язык : English
Default : Нет
Forced : Нет
Аудио #5
Идентификатор : 6
Формат : AC-3
Формат/Информация : Audio Coding 3
Профиль формата : Dolby Digital
Расширение режима : CM (complete main)
Параметр Endianness формата : Big
Идентификатор кодека : A_AC3
Продолжительность : 1 ч. 52 м.
Вид битрейта : Постоянный
Битрейт : 192 Кбит/сек
Каналы : 2 канала
Расположение каналов : Front: L R
Частота : 48,0 КГц
Битовая глубина : 16 бит
Метод сжатия : С потерями
Размер потока : 155 Мбайт (3%)
Заголовок : Commentary
Язык : English
Default : Нет
Forced : Нет
Текст #1
Идентификатор : 7
Формат : UTF-8
Идентификатор кодека : S_TEXT/UTF8
Идентификатор кодека/Информация : UTF-8 Plain Text
Заголовок : русский
Язык : Russian
Default : Нет
Forced : Нет
Текст #2
Идентификатор : 8
Формат : UTF-8
Идентификатор кодека : S_TEXT/UTF8
Идентификатор кодека/Информация : UTF-8 Plain Text
Заголовок : английский
Default : Нет
Forced : Нет
Меню
00:00:00.000 : :Chapter 01
00:07:22.107 : :Chapter 02
00:14:02.883 : :Chapter 03
00:20:41.907 : :Chapter 04
00:28:29.081 : :Chapter 05
00:34:29.108 : :Chapter 06
00:41:37.536 : :Chapter 07
00:47:58.125 : :Chapter 08
00:54:29.683 : :Chapter 09
01:01:30.728 : :Chapter 10
01:08:17.843 : :Chapter 11
01:17:38.028 : :Chapter 12
01:23:56.531 : :Chapter 13
01:30:30.550 : :Chapter 14
01:35:26.887 : :Chapter 15
01:42:43.573 : :Chapter 16
01:52:42.546 : :Chapter 17

Скриншоты

[Профиль] [ЛС]
Кто просматривает тему:

Показать сообщения:    

Текущее время: Сегодня 13:49

Часовой пояс: GMT



Вы не можете начинать темы
Вы не можете отвечать на сообщения
Вы не можете редактировать свои сообщения
Вы не можете удалять свои сообщения
Вы не можете голосовать в опросах
Вы не можете прикреплять файлы к сообщениям
Вы не можете скачивать файлы