Баллада о бомбере (Виталий Воробьев) [2011, Россия, Украина, военный, BDRip 1080p]

 
Автор Сообщение

TorrentFilm ®

Пол:

Стаж: 2 года

Сообщений: 7741



Награды: Нет

Торрент-статистика

Создавать темы 01-Янв-2016 00:06

[Цитировать]

Баллада о бомбере / 1080p
Год выпуска: 2011
Производство: Россия, Украина
Жанр: военный
Продолжительность: 3:09:05
Субтитры: нет
Режиссёр: Виталий Воробьев
В ролях: Никита Ефремов (Андрей Гривцов), Екатерина Астахова (Катя, радистка), Александр Давыдов (штурман Линько), Нина Усатова (Савчук), Виктория Толстоганова (Елизавета), Егор Баринов, Олег Примогенов, Игорь Гнездилов (Федор Карчин), Дарья Екамасова, Василий Слюсаренко, Владислав Абашин, Дирк Мартенс (Хольт)
Описание: Во время Второй мировой войны на территории, оккупированной немцами, разбивается советский самолет, но летевшие в нем на задание летчик Гривцов и его возлюбленная радистка Катя чудом спасаются. Удалось выжить и штурману Линько. Каждому из них теперь придется найти свой путь, чтобы выполнить боевое задание, вернуться к своим, и выжить...
Все спасибо - http://torrentfilm.net/forum/viewtopic.php?t=3998707
Сэмпл - http://narod.ru/disk/45844682001.10635f7b25110bc4c5...0Sample.mkv.html
Все раздачи - http://torrentfilm.net/forum/tracker.php?f=9&nm=%...E%EC%E1%E5%F0%E5
Качество: BDRip
Формат: MKV
Видео кодек: H.264
Аудио кодек: DTS
Видео: 1920 Х 1080 / 23.976 fps / ~11700 kbp/s / 0.235 bt/px
Аудио: 5.1 / 48 KHz / ~1510 kbp/s

MI

General
Unique ID : 226807494740321861417528442591195998280 (0xAAA188D9C9C50A3486999D910F70A848)
Complete name : Q:\Cериалы\Баллада о бомбере\Баллада о бомбере 1080p\01.mkv
Format : Matroska
Format version : Version 2
File size : 4.39 GiB
Duration : 47mn 48s
Overall bit rate : 13.1 Mbps
Movie name : Баллада о борьбе / Релиз - D2T/"Криволапый ювелир"
Encoded date : UTC 2012-04-08 19:13:08
Writing application : mkvmerge v4.0.0 ('The Stars were mine') сборка от Jun 6 2010 16:18:42
Writing library : libebml v1.0.0 + libmatroska v1.0.0
Video
ID : 1
Format : AVC
Format/Info : Advanced Video Codec
Format profile : High@L4.0
Format settings, CABAC : Yes
Format settings, ReFrames : 4 frames
Codec ID : V_MPEG4/ISO/AVC
Duration : 47mn 48s
Bit rate : 11.7 Mbps
Width : 1 920 pixels
Height : 1 080 pixels
Display aspect ratio : 16:9
Frame rate : 23.976 fps
Color space : YUV
Chroma subsampling : 4:2:0
Bit depth : 8 bits
Scan type : Progressive
Bits/(Pixel*Frame) : 0.235
Stream size : 3.80 GiB (87%)
Writing library : x264 core 116 r2074 2641b9e
Encoding settings : cabac=1 / ref=4 / deblock=1:-1:-1 / analyse=0x3:0x112 / me=tesa / subme=9 / psy=1 / psy_rd=1.00:0.00 / mixed_ref=1 / me_range=16 / chroma_me=1 / trellis=2 / 8x8dct=1 / cqm=0 / deadzone=21,11 / fast_pskip=1 / chroma_qp_offset=-2 / threads=6 / sliced_threads=0 / nr=0 / decimate=1 / interlaced=0 / bluray_compat=0 / constrained_intra=0 / bframes=3 / b_pyramid=2 / b_adapt=2 / b_bias=0 / direct=3 / weightb=1 / open_gop=0 / weightp=2 / keyint=150 / keyint_min=1 / scenecut=33 / intra_refresh=0 / rc_lookahead=40 / rc=2pass / mbtree=1 / bitrate=11700 / ratetol=1.0 / qcomp=0.60 / qpmin=10 / qpmax=26 / qpstep=4 / cplxblur=20.0 / qblur=0.5 / ip_ratio=1.40 / aq=1:1.00
Language : English
Audio
ID : 2
Format : DTS
Format/Info : Digital Theater Systems
Codec ID : A_DTS
Duration : 47mn 48s
Bit rate mode : Constant
Bit rate : 1 510 Kbps
Channel(s) : 6 channels
Channel positions : Front: L C R, Side: L R, LFE
Sampling rate : 48.0 KHz
Bit depth : 16 bits
Compression mode : Lossy
Stream size : 516 MiB (11%)
Language : Russian

Скриншоты

Релиз

"Криволапый ювелир"
[Профиль] [ЛС]
Показать сообщения:    

Текущее время: Сегодня 13:51

Часовой пояс: GMT



Вы не можете начинать темы
Вы не можете отвечать на сообщения
Вы не можете редактировать свои сообщения
Вы не можете удалять свои сообщения
Вы не можете голосовать в опросах
Вы не можете прикреплять файлы к сообщениям
Вы не можете скачивать файлы