Байки из склепа: Демон ночи / Tales from the Crypt: Demon Knight (Эрнест Р. Дикерсон) [1995 г., ужасы, фэнтези, триллер, комедия, HDRip] [MVO (R5)]

 
Автор Сообщение

Bathory ®

Пол:

Стаж: 8 месяцев 27 дней

Сообщений: 168



Награды: 3 (Подробнее)

За внесенный вклад в развитие сайта (Количество: 1) Друг (Количество: 1) Girls (Количество: 1)
Торрент-статистика

Создавать темы 08-Мар-2016 13:37

[Цитировать]

Байки из склепа: Демон ночи / Tales from the Crypt: Demon Knight- Информация о фильме
Название: Байки из склепа: Демон ночи
Оригинальное название: Tales from the Crypt: Demon Knight
Год выхода: 1995
Жанр: ужасы, фэнтези, триллер, комедия
Режиссер: Эрнест Р. Дикерсон
В ролях: Джон Кассир , Билли Зейн, Уильям Сэдлер, Джада Пинкетт Смит, Бренда Бакки, Си Си Эйч Паундер, Дик Миллер, Томас Хейден Чёрч, Джон Шак, Гэри Фармер, Чарльз Флайшер, Тим Де Зарн, Шерри Роуз, Райан О`Донохью, Тони Салом, Кен Болдуин, Чейси Лэйн, Реда Биби, Трэйси Бингхэм
О фильме:
Два «человека», живущих уже не первую сотню лет, приезжают в маленький городок. Один из них, повелитель демонов, может понаделать их целую кучу из своей крови. А второй пытается его победить при помощи крови разбойника Варраввы, распятого рядом с Христом. Содержалась эта кровь в седьмом ключе, необходимом Нечистому для окончательного овладения миром. Участниками этой насыщенной кошмарами борьбы оказались несколько обычных граждан, о чем они вскоре очень пожалели…

Страна: США
Студия: Universal Pictures
Продолжительность: 01:32:23
Перевод: Профессиональный (многоголосый закадровый) [R5]
Файл
Кодек: XviD
Качество: HDRip
Видео: 720x384, 1805 kbps, 23,976 fps, 0,272 Bits/(Pixel*Frame)
Звук: AC3, 48 kHz, 6 ch, 448 kbps - R5
Субтитры: Нет

MI

General
Complete name : I:Demon.Knight.1995.P.HDRip_by_Bathory.avi
Format : AVI
Format/Info : Audio Video Interleave
File size : 1.46 GiB
Duration : 1h 32mn
Overall bit rate : 2 262 Kbps
Writing application : VirtualDubMod 1.5.10.3 | www.virtualdub-fr.org || (build 2550/release)
Writing library : VirtualDubMod build 2550/release
Video
ID : 0
Format : MPEG-4 Visual
Format profile : Advanced Simple@L5
Format settings, BVOP : 1
Format settings, QPel : No
Format settings, GMC : No warppoints
Format settings, Matrix : Custom
Codec ID : XVID
Codec ID/Hint : XviD
Duration : 1h 32mn
Bit rate : 1 805 Kbps
Width : 720 pixels
Height : 384 pixels
Display aspect ratio : 1.85:1
Frame rate : 23.976 fps
Color space : YUV
Chroma subsampling : 4:2:0
Bit depth : 8 bits
Scan type : Progressive
Compression mode : Lossy
Bits/(Pixel*Frame) : 0.272
Stream size : 1.16 GiB (80%)
Writing library : XviD 73
Audio
ID : 1
Format : AC-3
Format/Info : Audio Coding 3
Mode extension : CM (complete main)
Format settings, Endianness : Big
Codec ID : 2000
Duration : 1h 32mn
Bit rate mode : Constant
Bit rate : 448 Kbps
Channel(s) : 6 channels
Channel positions : Front: L C R, Side: L R, LFE
Sampling rate : 48.0 KHz
Bit depth : 16 bits
Compression mode : Lossy
Stream size : 296 MiB (20%)
Alignment : Split accross interleaves
Interleave, duration : 42 ms (1.00 video frame)
Interleave, preload duration : 500 ms

Скриншоты

Автор рипа: Bathory
[Профиль] [ЛС]
Показать сообщения:    

Текущее время: Сегодня 13:59

Часовой пояс: GMT



Вы не можете начинать темы
Вы не можете отвечать на сообщения
Вы не можете редактировать свои сообщения
Вы не можете удалять свои сообщения
Вы не можете голосовать в опросах
Вы не можете прикреплять файлы к сообщениям
Вы не можете скачивать файлы