Байкал. 180 дней одиночества / Baikal. 180 days of solitude (Флоренс Трапн, Сильвен Тессон) [2011, Документальный, HDTV 1080i]

 
Автор Сообщение

TorrentFilm ®

Пол:

Стаж: 2 года

Сообщений: 7741



Награды: Нет

Торрент-статистика

Создавать темы 31-Июл-2015 00:07

[Цитировать]

Байкал. 180 дней одиночества / Baikal. 180 days of solitude
Год выпуска: 2011
Страна: Франция
Жанр: Документальный
Продолжительность: 00:51:24
Перевод: Дубляж Видеофильм ТВ
Русские субтитры: нет
Режиссер: Florence TRAN / Флоренс Трапн, Sebatien OBERLE / Себастьян Оберле
Описание: Иркутск - сибирский город, в 60-ти километрах от озера Байкал. Сейчас февраль. Вот-вот осуществится моя мечта. Я обещал себе, что схожу в глубь лесной чащи, прежде чем мне стукнет 40 и попробую какого это - свести жизнь к самому необходимому минимуму. Люди хотят изменить мир, а я стараюсь изменить самого себя. Этот синий фургон загружен припасами на пол года: еда, рыболовное снаряжение, водка, сигары и книги.
Семпл: https://yadi.sk/d/WQkIRBmOiBgAc
Качество: HDTV 1080i
Контейнер: TS
Видео кодек: H.264
Аудио кодек: MP2
Видео: H264; 1920x1080 (16:9); 25.000 fps; ~11.0 Mbps
Аудио: MPEG Audio Version 1 Layer 2, 48000Hz, 2 channels stereo 192 Кбит/сек

MediaInfo

GeneralID : 1 (0x1)Complete name : E:\3\Байкал. 180 дней одиночества.tsFormat : MPEG-TSFile size : 4.25 GiBDuration : 51mn 24sOverall bit rate mode : VariableOverall bit rate : 11.8 Mbps
VideoID : 2132 (0x854)Menu ID : 1 (0x1)Format : AVCFormat/Info : Advanced Video CodecFormat profile : Main@L4.0Format settings, CABAC : YesFormat settings, ReFrames : 3 framesCodec ID : 27Duration : 51mn 24sBit rate : 11.0 MbpsWidth : 1 920 pixelsHeight : 1 080 pixelsDisplay aspect ratio : 16:9Frame rate : 25.000 fpsStandard : ComponentColor space : YUVChroma subsampling : 4:2:0Bit depth : 8 bitsScan type : InterlacedBits/(Pixel*Frame) : 0.213Stream size : 3.97 GiB (93%)Color primaries : BT.709Transfer characteristics : BT.709Matrix coefficients : BT.709
AudioID : 2135 (0x857)Menu ID : 1 (0x1)Format : MPEG AudioFormat version : Version 1Format profile : Layer 2Codec ID : 3Duration : 51mn 24sBit rate mode : ConstantBit rate : 192 KbpsChannel(s) : 2 channelsSampling rate : 48.0 KHzCompression mode : LossyDelay relative to video : -40msStream size : 70.6 MiB (2%)Language : Russian

Скриншоты



Релиз группы:
[Профиль] [ЛС]
Показать сообщения:    

Текущее время: Сегодня 10:14

Часовой пояс: GMT



Вы не можете начинать темы
Вы не можете отвечать на сообщения
Вы не можете редактировать свои сообщения
Вы не можете удалять свои сообщения
Вы не можете голосовать в опросах
Вы не можете прикреплять файлы к сообщениям
Вы не можете скачивать файлы