Байкальские каникулы (2015) WEB-DLRip| КПК

 
Автор Сообщение

Шкипер ®

Пол:

Стаж: 1 год 7 месяцев

Сообщений: 52



Награды: Нет

Торрент-статистика

Создавать темы 09-Сен-2016 13:16

[Цитировать]

Информация о фильме
Название: Байкальские каникулы
Год выхода: 2015
Жанр: Комедия, семейный, приключения
Режиссер: Анастасия Немчинова, Ольга Бутакова, Артем Бурлов
В ролях: Иван Кузнецов, Александр Кыштымов, Виктор Тетерин, Лена Усольцева, Сергей Ершов, Амаду Мамадаков, Чимит Жамьянов, Виктор Малышенко, Наталия Мельникова, Анастасия Гусева, Анна Щербакова, Александр Михалев
О фильме:
Коля Голиков обычный мальчик, который предпочитает общению гаджеты, а друзьям социальные сети. Впервые в своей жизни отправился в детский лагерь на берегу Байкала. Жизнь в отряде не нравится Коле. Ребята не могут найти общий язык. Зато он узнает, что на этом месте давным-давно был другой лагерь. Тоже детский только пионерский. А еще он узнает, что пионеры оставляли капсулы времени — специальные послания будущим поколениям. Наш герой находит капсулу с посланием 1985 года от пионера Саши Филлипова. Приключения начинаются…

Страна: Россия
Студия: Asia Films
Продолжительность: 01:24:18
Перевод: Не требуется
Файл
Кодек: h264
Качество: WEB-DLRip| КПК
Видео: MPEG4 Video (H264), 416x176 (2.35:1), 24fps, 349kbps, 0.199 Bits/Pixel
Звук: AAC lc, 44100 Hz, 2ch, 125 kb/s
Субтитры: Отсутствуют
Семпл

MI

General
Complete name : E:Изготовление рипаBaykalskie kanikuli (2015) WEB-DLRip by shkiper.mp4
Format : MPEG-4
Format profile : Base Media
Codec ID : isom (isom/avc1)
File size : 288 MiB
Duration : 1h 24mn
Overall bit rate mode : Variable
Overall bit rate : 478 Kbps
Encoded date : UTC 2016-09-08 10:43:45
Tagged date : UTC 2016-09-08 10:43:45
Video
ID : 1
Format : AVC
Format/Info : Advanced Video Codec
Format profile : Baseline@L3
Format settings, CABAC : No
Format settings, ReFrames : 1 frame
Codec ID : avc1
Codec ID/Info : Advanced Video Coding
Duration : 1h 24mn
Bit rate : 350 Kbps
Maximum bit rate : 1 124 Kbps
Width : 416 pixels
Height : 176 pixels
Display aspect ratio : 2.35:1
Frame rate mode : Constant
Frame rate : 24.000 fps
Color space : YUV
Chroma subsampling : 4:2:0
Bit depth : 8 bits
Scan type : Progressive
Bits/(Pixel*Frame) : 0.199
Stream size : 211 MiB (73%)
Title : Imported with GPAC 0.4.6-DEV (internal rev. 5)
Writing library : x264 core 67 r1165M 6841c5e
Encoding settings : cabac=0 / ref=1 / deblock=1:0:0 / analyse=0x1:0 / me=hex / subme=6 / psy_rd=1.0:0.0 / mixed_ref=0 / me_range=16 / chroma_me=1 / trellis=0 / 8x8dct=0 / cqm=0 / deadzone=21,11 / chroma_qp_offset=-2 / threads=3 / nr=0 / decimate=1 / mbaff=0 / bframes=0 / keyint=250 / keyint_min=25 / scenecut=40 / rc=2pass / bitrate=350 / ratetol=1.0 / qcomp=0.60 / qpmin=10 / qpmax=51 / qpstep=4 / cplxblur=20.0 / qblur=0.5 / vbv_maxrate=1500 / vbv_bufsize=2000 / ip_ratio=1.40 / aq=1:1.00
Encoded date : UTC 2016-09-08 10:43:45
Tagged date : UTC 2016-09-08 10:44:13
Audio
ID : 2
Format : AAC
Format/Info : Advanced Audio Codec
Format profile : LC
Codec ID : 40
Duration : 1h 24mn
Bit rate mode : Variable
Bit rate : 126 Kbps
Maximum bit rate : 171 Kbps
Channel(s) : 2 channels
Channel positions : Front: L R
Sampling rate : 44.1 KHz
Frame rate : 43.066 fps (1024 spf)
Compression mode : Lossy
Stream size : 75.7 MiB (26%)
Title : Imported with GPAC 0.4.6-DEV (internal rev. 5)
Encoded date : UTC 2016-09-08 10:44:05
Tagged date : UTC 2016-09-08 10:44:13

Скриншоты

Релиз от:
[Профиль] [ЛС]
Показать сообщения:    

Текущее время: Сегодня 18:39

Часовой пояс: GMT



Вы не можете начинать темы
Вы не можете отвечать на сообщения
Вы не можете редактировать свои сообщения
Вы не можете удалять свои сообщения
Вы не можете голосовать в опросах
Вы не можете прикреплять файлы к сообщениям
Вы не можете скачивать файлы