Бадди едет на запад / Occhio alla penna (Микеле Лупо) [1981 г., комедия, вестерн, BDRip-AVC] [VO (Joe30)] [Полная итальянская версия]

 
Автор Сообщение

Bathory ®

Пол:

Стаж: 8 месяцев 28 дней

Сообщений: 169



Награды: 3 (Подробнее)

За внесенный вклад в развитие сайта (Количество: 1) Друг (Количество: 1) Girls (Количество: 1)
Торрент-статистика

Создавать темы 11-Июн-2016 10:00

[Цитировать]

Бадди едет на запад / Occhio alla penna- Информация о фильме
Название: Бадди едет на запад
Оригинальное название: Occhio alla penna
Год выхода: 1981
Жанр: комедия, вестерн
Режиссер: Микеле Лупо
В ролях: Бад Спенсер, Амиду, Джо Багнер, Пьеро Тромбетта, Карло Реали, Сара Франкетти, Ренато Скарпа, Риккардо Пиццути, Андреа Хойер, Марильда Дона
О фильме:
В небольшом городке, стрелка Бадди (Бад Спенсер) ошибочно приняли за врача, после того как он со своим спутником индейцем случайно украл сумку хирургических инструментов. Но когда на городок нападают бандиты, Бадди показывает что он действительно умеет делать.

Страна: Италия
Студия: Alex Cinematografica
Продолжительность: 01:37:42
Перевод: Любительский (одноголосый закадровый) [Joe30]
Файл
Кодек: AVC
Качество: BDRip-AVC
Видео: 1072x456, 2797 kbps, 24 fps, 0,238 Bits/(Pixel*Frame)
Звук:
1. AC3, 48 kHz, 2 ch, 224 kbps - RUS [VO]
2. AC3, 48 kHz, 2 ch, 192 kbps - ITA [Original]
Субтитры: Русские форсированные, на непереведенные места полной версии
Семпл

MI

General
Unique ID : 170685171627853057178618573107600787792 (0x8068C4AFF86E26D4BA2A65C02C4F8950)
Complete name : E:\Occhio.alla.penna.1981.Rus.Ita.BDRip-AVC_by_Bathory.mkv
Format : Matroska
Format version : Version 4 / Version 2
File size : 2.19 GiB
Duration : 1h 37mn
Overall bit rate : 3 215 Kbps
Encoded date : UTC 2016-06-11 08:58:04
Writing application : mkvmerge v8.6.1 ('Flying') 64bit
Writing library : libebml v1.3.3 + libmatroska v1.4.4
DURATION : 00:22:22.749000000
NUMBER_OF_FRAMES : 14
NUMBER_OF_BYTES : 563
_STATISTICS_WRITING_APP : mkvmerge v8.6.1 ('Flying') 64bit
_STATISTICS_WRITING_DATE_UTC : 2016-06-11 08:58:04
_STATISTICS_TAGS : BPS DURATION NUMBER_OF_FRAMES NUMBER_OF_BYTES
Video
ID : 1
Format : AVC
Format/Info : Advanced Video Codec
Format profile : High@L4.1
Format settings, CABAC : Yes
Format settings, ReFrames : 10 frames
Codec ID : V_MPEG4/ISO/AVC
Duration : 1h 37mn
Bit rate : 2 797 Kbps
Width : 1 072 pixels
Height : 456 pixels
Display aspect ratio : 2.35:1
Frame rate mode : Constant
Frame rate : 24.000 fps
Color space : YUV
Chroma subsampling : 4:2:0
Bit depth : 8 bits
Scan type : Progressive
Bits/(Pixel*Frame) : 0.238
Stream size : 1.87 GiB (85%)
Writing library : x264 core 146 r2538 121396c
Encoding settings : cabac=1 / ref=10 / deblock=1:-3:-3 / analyse=0x3:0x133 / me=umh / subme=11 / psy=1 / psy_rd=1.00:0.05 / mixed_ref=1 / me_range=32 / chroma_me=1 / trellis=2 / 8x8dct=1 / cqm=0 / deadzone=21,11 / fast_pskip=0 / chroma_qp_offset=-3 / threads=12 / lookahead_threads=3 / sliced_threads=0 / nr=0 / decimate=1 / interlaced=0 / bluray_compat=0 / constrained_intra=0 / bframes=12 / b_pyramid=2 / b_adapt=2 / b_bias=0 / direct=3 / weightb=1 / open_gop=0 / weightp=2 / keyint=250 / keyint_min=23 / scenecut=40 / intra_refresh=0 / rc_lookahead=60 / rc=2pass / mbtree=1 / bitrate=2797 / ratetol=1.0 / qcomp=0.60 / qpmin=0 / qpmax=69 / qpstep=4 / cplxblur=20.0 / qblur=0.5 / ip_ratio=1.40 / aq=1:1.00
Default : Yes
Forced : No
Audio #1
ID : 2
Format : AC-3
Format/Info : Audio Coding 3
Mode extension : CM (complete main)
Format settings, Endianness : Big
Codec ID : A_AC3
Duration : 1h 37mn
Bit rate mode : Constant
Bit rate : 224 Kbps
Channel(s) : 2 channels
Channel positions : Front: L R
Sampling rate : 48.0 KHz
Bit depth : 16 bits
Compression mode : Lossy
Stream size : 157 MiB (7%)
Language : Russian
Default : Yes
Forced : No
Audio #2
ID : 3
Format : AC-3
Format/Info : Audio Coding 3
Mode extension : CM (complete main)
Format settings, Endianness : Big
Codec ID : A_AC3
Duration : 1h 37mn
Bit rate mode : Constant
Bit rate : 192 Kbps
Channel(s) : 2 channels
Channel positions : Front: L R
Sampling rate : 48.0 KHz
Bit depth : 16 bits
Compression mode : Lossy
Stream size : 134 MiB (6%)
Language : Italian
Default : No
Forced : No
Text
ID : 4
Format : UTF-8
Codec ID : S_TEXT/UTF8
Codec ID/Info : UTF-8 Plain Text
Language : Russian
Default : Yes
Forced : Yes

Скриншоты

Релиз от:
Автор рипа: Bathory
[Профиль] [ЛС]
Показать сообщения:    

Текущее время: Сегодня 08:51

Часовой пояс: GMT



Вы не можете начинать темы
Вы не можете отвечать на сообщения
Вы не можете редактировать свои сообщения
Вы не можете удалять свои сообщения
Вы не можете голосовать в опросах
Вы не можете прикреплять файлы к сообщениям
Вы не можете скачивать файлы