Багровый прилив / Crimson Tide (1995) BDRip 1080p | P, P2, A

 
Автор Сообщение

sergej644 ®

Пол:

Стаж: 4 года 11 месяцев

Сообщений: 6041

Откуда: Soviet Union



Награды: Нет

Торрент-статистика

Создавать темы 31-Окт-2014 15:27

[Цитировать]

--Багровый прилив / Crimson Tide (1995)
Информация о фильме
Название: Багровый прилив
Оригинальное название: Crimson Tide
Год выхода: 1995
Страна: США
Выпущено: Hollywood Pictures, Don Simpson/Jerry Bruckheimer Films
Жанр: Боевик, триллер, драма
Продолжительность: 01:55:46
Перевод: Профессиональный (Многоголосый, двухголосый, одноголосый) закадровый
Режиссер: Тони Скотт
В ролях: Дензел Вашингтон, Джин Хэкмен, Мэтт Крэвен, Джордж Зунза, Вигго Мортенсен, Джеймс Гандольфини, Роки Кэрролл, Джейм Гомез, Майкл Милхоун, Скотт Баркхолдер, Дэнни Нуччи, Лилло Бранкато, Эрик Браскоттер, Рик Шродер, Стив Зан, Марселло Тедфорд, Р.Дж. Нолл, Билли Дэвлин, Мэттью Бэрри, Кристофер Бирт, Джеймс Рейд Бойс, Джейкоб Варгас, Кай Леннокс, Майкл Д. Уэзерред, Марк Кристофер Лоуренс, Майкл Чиффо, Джеймс Лежер, Ванесса Белл Кэллоуэй-Сюжет фильма
В мире есть три самых могущественных человека - президент России, президент США и капитан атомной подводной лодки, несущей на своем борту смертоносное ядерное оружие. Но на любой войне случаются моменты, когда от выполнения приказа зависит судьба всего человечества, и тогда в руках капитана находятся жизни миллионов людей. И только от его выдержки и разума зависит, окрасится ли поутру океанский прилив в зловещий багровый цвет…
-Файл
Формат: MKV
Видео кодек: x264
Аудио кодек: AC-3
Качество: BDRip 1080p Источник: Blu-ray "BlueBird" [US-Transfer]
Видео: AVC (2.40:1) 1920x800, 23.976 fps, 7486 kbps, 0.203 Bit/Pixel
Аудио 1: DD (2.0) 16 bit, 48 kHz, 192 kbps (Уолт Дисней Компани) Лицензия
Аудио 2: DD (5.1) 16 bit, 48 kHz, 640 kbps (П. Гланц и И. Королева)
Аудио 3: DD (5.1) 16 bit, 48 kHz, 448 kbps (Андрей Гаврилов)
Аудио 4: DD (2.0) 16 bit, 48 kHz, 192 kbps (Юрий Живов)
Аудио 5: DD (5.1) 16 bit, 48 kHz, 640 kbps (Original)
Субтитры: SRT Русские, Английские
Меню: Сохранены оригинальные чаптеры Blu-ray--

x264 & MI

x264 [info]: frame I:1251 Avg QP:16.40 size:140841
x264 [info]: frame P:42688 Avg QP:19.05 size: 67529
x264 [info]: frame B:122609 Avg QP:21.01 size: 28042-General
Unique ID : 229826520685675297968933244960086568074 (0xACE6FA526E2BFA9D80D6C42743222C8A)
Format : Matroska
Format version : Version 2
File size : 7.76 GiB
Duration : 1h 55mn
Overall bit rate : 9 598 Kbps
Movie name : Багровый прилив (1995) BDRip (1080p)
Encoded date : UTC 2013-03-19 11:32:09
Writing application : mkvmerge v5.8.0 ('No Sleep / Pillow') built on Sep 2 2012 15:37:04
Writing library : libebml v1.2.3 + libmatroska v1.3.0
Video
ID : 1
Format : AVC
Format/Info : Advanced Video Codec
Format profile : High@L4.1
Format settings, CABAC : Yes
Format settings, ReFrames : 5 frames
Codec ID : V_MPEG4/ISO/AVC
Duration : 1h 55mn
Bit rate : 7 486 Kbps
Width : 1 920 pixels
Height : 800 pixels
Display aspect ratio : 2.40:1
Frame rate mode : Constant
Frame rate : 23.976 fps
Color space : YUV
Chroma subsampling : 4:2:0
Bit depth : 8 bits
Scan type : Progressive
Bits/(Pixel*Frame) : 0.203
Stream size : 5.90 GiB (76%)
Title : Release by Alex260680
Writing library : x264 core 130 r2273 b3065e6
Encoding settings : cabac=1 / ref=5 / deblock=1:-3:-3 / analyse=0x3:0x133 / me=umh / subme=11 / psy=1 / psy_rd=1.00:0.10 / mixed_ref=1 / me_range=32 / chroma_me=1 / trellis=2 / 8x8dct=1 / cqm=0 / deadzone=21,11 / fast_pskip=0 / chroma_qp_offset=-3 / threads=12 / lookahead_threads=1 / sliced_threads=0 / nr=0 / decimate=0 / interlaced=0 / bluray_compat=0 / constrained_intra=0 / bframes=5 / b_pyramid=2 / b_adapt=2 / b_bias=0 / direct=3 / weightb=1 / open_gop=0 / weightp=2 / keyint=240 / keyint_min=23 / scenecut=40 / intra_refresh=0 / rc=2pass / mbtree=0 / bitrate=7486 / ratetol=1.0 / qcomp=0.60 / qpmin=0 / qpmax=69 / qpstep=4 / cplxblur=20.0 / qblur=0.5 / ip_ratio=1.40 / pb_ratio=1.30 / aq=1:0.70
Language : English
Default : Yes
Forced : No
Audio #1
ID : 2
Format : AC-3
Format/Info : Audio Coding 3
Mode extension : CM (complete main)
Format settings, Endianness : Big
Codec ID : A_AC3
Duration : 1h 55mn
Bit rate mode : Constant
Bit rate : 192 Kbps
Channel(s) : 2 channels
Channel positions : Front: L R
Sampling rate : 48.0 KHz
Bit depth : 16 bits
Compression mode : Lossy
Stream size : 159 MiB (2%)
Title : MVO (Уолт Дисней Компани)
Language : Russian
Default : Yes
Forced : No
Audio #2
ID : 3
Format : AC-3
Format/Info : Audio Coding 3
Mode extension : CM (complete main)
Format settings, Endianness : Big
Codec ID : A_AC3
Duration : 1h 55mn
Bit rate mode : Constant
Bit rate : 640 Kbps
Channel(s) : 6 channels
Channel positions : Front: L C R, Side: L R, LFE
Sampling rate : 48.0 KHz
Bit depth : 16 bits
Compression mode : Lossy
Stream size : 530 MiB (7%)
Title : DVO (Пётр Гланц и Инна Королева)
Language : Russian
Default : No
Forced : No
Audio #3
ID : 4
Format : AC-3
Format/Info : Audio Coding 3
Mode extension : CM (complete main)
Format settings, Endianness : Big
Codec ID : A_AC3
Duration : 1h 55mn
Bit rate mode : Constant
Bit rate : 448 Kbps
Channel(s) : 6 channels
Channel positions : Front: L C R, Side: L R, LFE
Sampling rate : 48.0 KHz
Bit depth : 16 bits
Compression mode : Lossy
Stream size : 371 MiB (5%)
Title : AVO (Андрей Гаврилов)
Language : Russian
Default : No
Forced : No
Audio #4
ID : 5
Format : AC-3
Format/Info : Audio Coding 3
Format profile : Dolby Digital
Mode extension : CM (complete main)
Format settings, Endianness : Big
Codec ID : A_AC3
Duration : 1h 55mn
Bit rate mode : Constant
Bit rate : 192 Kbps
Channel(s) : 2 channels
Channel positions : Front: L R
Sampling rate : 48.0 KHz
Bit depth : 16 bits
Compression mode : Lossy
Stream size : 159 MiB (2%)
Title : AVO (Юрий Живов)
Language : Russian
Default : No
Forced : No
Audio #5
ID : 6
Format : AC-3
Format/Info : Audio Coding 3
Mode extension : CM (complete main)
Format settings, Endianness : Big
Codec ID : A_AC3
Duration : 1h 55mn
Bit rate mode : Constant
Bit rate : 640 Kbps
Channel(s) : 6 channels
Channel positions : Front: L C R, Side: L R, LFE
Sampling rate : 48.0 KHz
Bit depth : 16 bits
Compression mode : Lossy
Stream size : 530 MiB (7%)
Title : Original
Language : English
Default : No
Forced : No
Text #1
ID : 7
Format : UTF-8
Codec ID : S_TEXT/UTF8
Codec ID/Info : UTF-8 Plain Text
Language : Russian
Default : No
Forced : No
Text #2
ID : 8
Format : UTF-8
Codec ID : S_TEXT/UTF8
Codec ID/Info : UTF-8 Plain Text
Language : English
Default : No
Forced : No
Menu
00:00:00.000 : en:Chapter1
00:05:16.149 : en:Chapter2
00:07:29.783 : en:Chapter3
00:12:26.120 : en:Chapter4
00:13:40.737 : en:Chapter5
00:16:57.642 : en:Chapter6
00:20:38.320 : en:Chapter7
00:24:56.078 : en:Chapter8
00:30:30.746 : en:Chapter9
00:35:29.544 : en:Chapter10
00:39:14.811 : en:Chapter11
00:42:54.822 : en:Chapter12
00:46:37.294 : en:Chapter13
00:48:50.010 : en:Chapter14
00:51:54.945 : en:Chapter15
00:55:13.435 : en:Chapter16
01:00:57.737 : en:Chapter17
01:05:04.109 : en:Chapter18
01:08:45.580 : en:Chapter19
01:15:02.248 : en:Chapter20
01:16:22.119 : en:Chapter21
01:21:59.998 : en:Chapter22
01:23:20.662 : en:Chapter23
01:27:58.773 : en:Chapter24
01:28:51.535 : en:Chapter25
01:30:50.403 : en:Chapter26
01:32:21.619 : en:Chapter27
01:36:25.947 : en:Chapter28
01:38:04.378 : en:Chapter29
01:39:28.921 : en:Chapter30
01:43:01.217 : en:Chapter31
01:46:47.985 : en:Chapter32

Дополнительно

Используемое программное обеспечение: "Eac3to", "XviD4PSP", "Sonic Foundry Soft Encode", "SupRip", "MKVToolNix"
- -
[Профиль] [ЛС]
Показать сообщения:    

Текущее время: Сегодня 14:53

Часовой пояс: GMT



Вы не можете начинать темы
Вы не можете отвечать на сообщения
Вы не можете редактировать свои сообщения
Вы не можете удалять свои сообщения
Вы не можете голосовать в опросах
Вы не можете прикреплять файлы к сообщениям
Вы не можете скачивать файлы