Багровый пик / Crimson Peak (Гильермо дель Торо) [2015г., Ужасы, фэнтези, триллер, драма, мелодрама, детектив, BDRip 720p] DUB (iTunes) + SUB | 60fps

 
Автор Сообщение

BOSS ®

Пол:

Стаж: 2 года 1 месяц

Сообщений: 3712

Откуда: ODESSA



Награды: 20 (Подробнее)

Mega Releaser 2 (Количество: 1) Mega Seeder 5 (Количество: 1) Top Releaser 4 (Количество: 1)
Торрент-статистика

Создавать темы 02-Фев-2016 16:39

[Цитировать]

-
Багровый пик / Crimson Peak
-- Год выпуска: 2015
Страна: США, Канада
Производство: Legendary Pictures
Жанр: Ужасы, фэнтези, триллер, драма, мелодрама, детектив
Продолжительность: 01:58:43
Перевод: Профессиональный (полное дублирование) [iTunes]
Субтитры: Русские, английские
Режиссер: Гильермо дель Торо
В ролях: Миа Васиковска, Джессика Честейн, Том Хиддлстон, Чарли Ханнэм, Джим Бивер, Берн Горман, Лесли Хоуп, Даг Джонс, Джонатан Хайд, Брюс Грэй
Описание: Дурная слава преследует дом, что возвышается над городом. С приходом зимы он утопает в кровавых снегах. Говорят, дело в глине, проступающей на поверхность. Но ни единая душа не рискует ступить на ледяной склон… кроме нее. Она влюблена в таинственного незнакомца, живущего в древних стенах со своей сестрой. Багровый пик пробудился и уже не уснет.-[imdb]http://www.imdb.com/title/tt2554274[/imdb]
-Качество: BDRip 720p
Формат: MKV
Видео кодек: H 264
Аудио кодек: AC3
Видео: 1280x720 (16:9), 59.940 fps, MPEG4 AVC, ~10.5 Mbps avg, 0.189 bit/pixel
Аудио: 48 kHz, AC3 Dolby Digital, 3/2 (L,C,R,l,r) + LFE ch, ~384.00 kbps
Формат субтитров: UTF-8

MediaInfo:

Общее
Уникальный идентификатор : 191995574815758800996018516071972051665 (0x907100AF295204C18B00A71EB7979AD1)
Полное имя : C:\Crimson Peak 60fps.mkv
Формат : Matroska
Версия формата : Version 4 / Version 2
Размер файла : 9,18 Гбайт
Продолжительность : 1 ч. 58 м.
Общий поток : 11,1 Мбит/сек
Название фильма : Crimson Peak (2015) 1080p BD-Remux
Дата кодирования : UTC 2016-01-30 17:23:18
Программа кодирования : mkvmerge v6.9.1 ('Blue Panther') 64bit built on Apr 18 2014 18:23:38
Библиотека кодирования : libebml v1.3.0 + libmatroska v1.4.1
Видео
Идентификатор : 1
Формат : AVC
Формат/Информация : Advanced Video Codec
Профиль формата : High@L4.1
Параметр CABAC формата : Да
Параметр ReFrames формата : 6 кадров
Идентификатор кодека : V_MPEG4/ISO/AVC
Продолжительность : 1 ч. 58 м.
Битрейт : 10,5 Мбит/сек
Ширина : 1280 пикселей
Высота : 720 пикселей
Соотношение сторон : 16:9
Режим частоты кадров : Постоянный
Частота кадров : 59,940 (59940/1000) кадров/сек
Цветовое пространство : YUV
Субдискретизация насыщенности : 4:2:0
Битовая глубина : 8 бит
Тип развёртки : Прогрессивная
Бит/(Пиксели*Кадры) : 0.189
Размер потока : 8,68 Гбайт (95%)
Заголовок : Release by mimok
Библиотека кодирования : x264 core 130 r2273 b3065e6
Настройки программы : cabac=1 / ref=6 / deblock=1:0:0 / analyse=0x3:0x133 / me=umh / subme=8 / psy=1 / psy_rd=1.00:0.00 / mixed_ref=1 / me_range=20 / chroma_me=1 / trellis=2 / 8x8dct=1 / cqm=0 / deadzone=21,11 / fast_pskip=0 / chroma_qp_offset=-2 / threads=6 / lookahead_threads=2 / sliced_threads=0 / nr=0 / decimate=0 / interlaced=0 / bluray_compat=0 / constrained_intra=0 / bframes=8 / b_pyramid=2 / b_adapt=2 / b_bias=0 / direct=1 / weightb=1 / open_gop=0 / weightp=2 / keyint=250 / keyint_min=25 / scenecut=40 / intra_refresh=0 / rc=crf / mbtree=0 / crf=16.0 / qcomp=0.63 / qpmin=10 / qpmax=51 / qpstep=4 / ip_ratio=1.40 / pb_ratio=1.30 / aq=2:1.50
Default : Да
Forced : Нет
Аудио
Идентификатор : 2
Формат : AC-3
Формат/Информация : Audio Coding 3
Расширение режима : CM (complete main)
Параметр Endianness формата : Big
Идентификатор кодека : A_AC3
Продолжительность : 1 ч. 58 м.
Вид битрейта : Постоянный
Битрейт : 384 Кбит/сек
Каналы : 6 каналов
Расположение каналов : Front: L C R, Side: L R, LFE
Частота : 48,0 КГц
Частота кадров : 31,250 кадров/сек (1536 spf)
Метод сжатия : С потерями
Размер потока : 326 Мбайт (3%)
Заголовок : iTunes
Язык : Russian
Default : Да
Forced : Нет
Текст #1
Идентификатор : 3
Формат : UTF-8
Идентификатор кодека : S_TEXT/UTF8
Идентификатор кодека/Информация : UTF-8 Plain Text
Заголовок : Forsed
Язык : Russian
Default : Да
Forced : Нет
Текст #2
Идентификатор : 4
Формат : UTF-8
Идентификатор кодека : S_TEXT/UTF8
Идентификатор кодека/Информация : UTF-8 Plain Text
Заголовок : Full
Язык : Russian
Default : Нет
Forced : Нет
Текст #3
Идентификатор : 5
Формат : UTF-8
Идентификатор кодека : S_TEXT/UTF8
Идентификатор кодека/Информация : UTF-8 Plain Text
Заголовок : Full
Язык : English
Default : Нет
Forced : Нет

Скриншоты:

[Профиль] [ЛС]
Показать сообщения:    

Текущее время: Сегодня 09:50

Часовой пояс: GMT



Вы не можете начинать темы
Вы не можете отвечать на сообщения
Вы не можете редактировать свои сообщения
Вы не можете удалять свои сообщения
Вы не можете голосовать в опросах
Вы не можете прикреплять файлы к сообщениям
Вы не можете скачивать файлы