Багровые реки / Les rivieres pourpres (2000) BDRip 720p от NNNB | D, P, A

 
Автор Сообщение

Russian Mafia ®

Пол:

Стаж: 1 год 8 месяцев

Сообщений: 4247



Награды: 10 (Подробнее)

Mega Seeder 4 (Количество: 1) Mega Seeder 5 (Количество: 1) Top Releaser 2 (Количество: 1)
Торрент-статистика

Создавать темы 22-Апр-2016 10:11

[Цитировать]

Багровые реки / Les rivieres pourpres
«Evil rises to new heights»
Русское название: Багровые реки
Оригинальное название: Les rivieres pourpres
Год выпуска: 2000
Жанр: триллер, криминал, детектив
Выпущено: Франция
Режиссер: Матьё Кассовиц
В ролях: Жан Рено , Венсан Кассель , Надя Фарес , Доминик Санда , Карим Белхадра , Жан-Пьер Кассель , Дидье Фламан , Франсуа Леванталь , Франсин Берже , Филипп Наон , Лоран Лафитт , Робер Гендрю
Перевод: Дублированный, Профессиональный многоголосый, Авторский одноголосый

Сюжет фильма:
В престижном колледже в Альпах совершено зверское убийство, которое расследует опытный комиссар полиции Пьер Ньеманс. Тем временем в другом местечке происходит еще одно, весьма странное преступление - кто-то раскапывает и оскверняет могилу 10-летней девочки.
Это дело ведет молодой детектив Макс Керкерьян. Кажется, между данными событиями нет связи. Но она существует! И когда оба полицейских обнаруживают ее, доселе виденные ими заурядные злодеяния постепенно меркнут по сравнению с тем сердцем тьмы, куда приведут их поиски правды. Смертельно опасной правды...

Качество: BDRip 720p
Формат: AVC (библиотека кодирования x.264)
Контейнер (Расширение): MKV
Видео: 1280x544, 4915 Кбит/сек, 24 кадр/сек, 0,294 Бит/[Пиксели*Кадры]
Аудио №1: русский / AC3 / 2.0 / 48 kHz / 192 kbps / 16 bit |Дублированный|
Аудио №2: русский / AC3 / 5.1 / 48 kHz / 448 kbps / 16 bit |Профессиональный многоголосый|
Аудио №3: русский / AC3 / 5.1 / 48 kHz / 640 kbps / 16 bit |Авторский, Чадов|
Аудио №4: русский / AC3 / 5.1 / 48 kHz / 448 kbps / 16 bit |Авторский, Гаврилов|
Аудио №5: русский / AC3 / 5.1 / 48 kHz / 448 kbps / 16 bit |Авторский, Визгунов|
Аудио №6: французский / AC3 / 5.1 / 48 kHz / 640 kbps / 16 bit
Субтитры: русские, английские
Навигация по главам(Чаптеры): есть
Продолжительность: 01:46:11Автор рипа: Сообщество:

MediaInfo

Format : Matroska
Format version : Version 2
File size : 5.73 GiB
Duration : 1h 46mn
Overall bit rate : 7 724 Kbps
Movie name : Bagrovye reki.(2000).BDRip.720p.[denis100]
Encoded date : UTC 2016-04-22 05:08:24
Writing application : mkvmerge v5.8.0 ('No Sleep / Pillow') built on Sep 2 2012 15:37:04
Writing library : libebml v1.2.3 + libmatroska v1.3.0
Video
ID : 1
Format : AVC
Format/Info : Advanced Video Codec
Format profile : High@L4.1
Format settings, CABAC : Yes
Format settings, ReFrames : 11 frames
Codec ID : V_MPEG4/ISO/AVC
Duration : 1h 46mn
Bit rate : 4 915 Kbps
Width : 1 280 pixels
Height : 544 pixels
Display aspect ratio : 2.35:1
Frame rate : 24.000 fps
Color space : YUV
Chroma subsampling : 4:2:0
Bit depth : 8 bits
Scan type : Progressive
Bits/(Pixel*Frame) : 0.294
Stream size : 3.53 GiB (62%)
Title : Bagrovye reki.(2000).BDRip.720p.[denis100]
Writing library : x264 core 148 r2692 64f4e24
Encoding settings : cabac=1 / ref=11 / deblock=1:-3:-3 / analyse=0x3:0x133 / me=umh / subme=11 / psy=1 / psy_rd=1.00:0.10 / mixed_ref=1 / me_range=32 / chroma_me=1 / trellis=2 / 8x8dct=1 / cqm=0 / deadzone=21,11 / fast_pskip=0 / chroma_qp_offset=-3 / threads=6 / lookahead_threads=1 / sliced_threads=0 / nr=0 / decimate=1 / interlaced=0 / bluray_compat=0 / constrained_intra=0 / bframes=10 / b_pyramid=2 / b_adapt=2 / b_bias=0 / direct=3 / weightb=0 / open_gop=0 / weightp=2 / keyint=250 / keyint_min=24 / scenecut=40 / intra_refresh=0 / rc=2pass / mbtree=0 / bitrate=4915 / ratetol=1.0 / qcomp=0.60 / qpmin=0 / qpmax=69 / qpstep=4 / cplxblur=20.0 / qblur=0.5 / ip_ratio=1.40 / pb_ratio=1.30 / aq=1:0.80
Language : English
Default : Yes
Forced : No
Audio #1
ID : 2
Format : AC-3
Format/Info : Audio Coding 3
Mode extension : CM (complete main)
Codec ID : A_AC3
Duration : 1h 46mn
Bit rate mode : Constant
Bit rate : 192 Kbps
Channel(s) : 2 channels
Channel positions : Front: L R
Sampling rate : 48.0 KHz
Bit depth : 16 bits
Compression mode : Lossy
Stream size : 146 MiB (2%)
Title : Дублированный
Language : Russian
Default : Yes
Forced : No
Audio #2
ID : 3
Format : AC-3
Format/Info : Audio Coding 3
Mode extension : CM (complete main)
Codec ID : A_AC3
Duration : 1h 46mn
Bit rate mode : Constant
Bit rate : 448 Kbps
Channel(s) : 6 channels
Channel positions : Front: L C R, Side: L R, LFE
Sampling rate : 48.0 KHz
Bit depth : 16 bits
Compression mode : Lossy
Stream size : 340 MiB (6%)
Title : MVO
Language : Russian
Default : No
Forced : No
Audio #3
ID : 4
Format : AC-3
Format/Info : Audio Coding 3
Mode extension : CM (complete main)
Codec ID : A_AC3
Duration : 1h 46mn
Bit rate mode : Constant
Bit rate : 640 Kbps
Channel(s) : 6 channels
Channel positions : Front: L C R, Side: L R, LFE
Sampling rate : 48.0 KHz
Bit depth : 16 bits
Compression mode : Lossy
Stream size : 486 MiB (8%)
Title : AVO, Чадов
Language : Russian
Default : No
Forced : No
Audio #4
ID : 5
Format : AC-3
Format/Info : Audio Coding 3
Mode extension : CM (complete main)
Codec ID : A_AC3
Duration : 1h 46mn
Bit rate mode : Constant
Bit rate : 448 Kbps
Channel(s) : 6 channels
Channel positions : Front: L C R, Side: L R, LFE
Sampling rate : 48.0 KHz
Bit depth : 16 bits
Compression mode : Lossy
Stream size : 340 MiB (6%)
Title : AVO, Гаврилов
Language : Russian
Default : No
Forced : No
Audio #5
ID : 6
Format : AC-3
Format/Info : Audio Coding 3
Mode extension : CM (complete main)
Codec ID : A_AC3
Duration : 1h 46mn
Bit rate mode : Constant
Bit rate : 448 Kbps
Channel(s) : 6 channels
Channel positions : Front: L C R, Side: L R, LFE
Sampling rate : 48.0 KHz
Bit depth : 16 bits
Compression mode : Lossy
Stream size : 340 MiB (6%)
Title : AVO, Визгунов
Language : Russian
Default : No
Forced : No
Audio #6
ID : 7
Format : AC-3
Format/Info : Audio Coding 3
Mode extension : CM (complete main)
Codec ID : A_AC3
Duration : 1h 46mn
Bit rate mode : Constant
Bit rate : 640 Kbps
Channel(s) : 6 channels
Channel positions : Front: L C R, Side: L R, LFE
Sampling rate : 48.0 KHz
Bit depth : 16 bits
Compression mode : Lossy
Stream size : 486 MiB (8%)
Language : French
Default : No
Forced : No
Text #1
ID : 8
Format : UTF-8
Codec ID : S_TEXT/UTF8
Codec ID/Info : UTF-8 Plain Text
Language : Russian
Default : No
Forced : No
Text #2
ID : 9
Format : UTF-8
Codec ID : S_TEXT/UTF8
Codec ID/Info : UTF-8 Plain Text
Language : English
Default : No
Forced : No
Menu
00:00:00.000 : en:00:00:00.000
00:05:26.708 : en:00:05:26.708
00:07:29.375 : en:00:07:29.375
00:12:49.750 : en:00:12:49.750
00:17:57.958 : en:00:17:57.958
00:21:56.042 : en:00:21:56.042
00:24:21.875 : en:00:24:21.875
00:27:21.375 : en:00:27:21.375
00:34:20.708 : en:00:34:20.708
00:37:30.542 : en:00:37:30.542
00:44:01.000 : en:00:44:01.000
00:50:35.250 : en:00:50:35.250
00:56:23.583 : en:00:56:23.583
01:04:02.500 : en:01:04:02.500
01:06:55.250 : en:01:06:55.250
01:12:26.958 : en:01:12:26.958
01:16:43.500 : en:01:16:43.500
01:21:34.792 : en:01:21:34.792
01:25:39.125 : en:01:25:39.125
01:29:52.000 : en:01:29:52.000
01:33:45.875 : en:01:33:45.875
01:38:08.417 : en:01:38:08.417
01:42:15.417 : en:01:42:15.417

x264

x264 [info]: frame I:783 Avg QP:15.19 size:105743
x264 [info]: frame P:37393 Avg QP:17.50 size: 43352
x264 [info]: frame B:114749 Avg QP:19.35 size: 19257

Скриншоты

[Профиль] [ЛС]
Показать сообщения:    

Текущее время: Сегодня 14:02

Часовой пояс: GMT



Вы не можете начинать темы
Вы не можете отвечать на сообщения
Вы не можете редактировать свои сообщения
Вы не можете удалять свои сообщения
Вы не можете голосовать в опросах
Вы не можете прикреплять файлы к сообщениям
Вы не можете скачивать файлы