Бавария – Путешествие мечты / Bavaria - Traumreise durch Bayern [2012, Документальный, BDRip 544p]

 
Автор Сообщение

TorrentFilm ®

Пол:

Стаж: 2 года

Сообщений: 7741



Награды: Нет

Торрент-статистика

Создавать темы 19-Июн-2015 00:07

[Цитировать]

Бавария – Путешествие мечты / Bavaria - Traumreise durch Bayern
-Название: Бавария – Путешествие мечты
Оригинальное название: Bavaria - Traumreise durch Bayern
Жанр: Документальный
Год выпуска: 2012
Страна: Германия
Продолжительность: 01:31:35
Перевод: Одноголосый закадровый
Русские субтитры: есть
-Режиссёр: Йозеф Вильсмайер / Joseph Vilsmaier-В ролях: Йозеф Вильсмайер / Joseph Vilsmaier-Описание: Первый полнометражный документальный фильм, рассказывающий об обширной южно-восточной германской области — Баварии. Живописные, захватывающие дух виды, баварские города, старинные замки, церкви и монастыри с многовековой историей, показанные с высоты птичьего полета. Часто говорят, что Бавария — это не Германия, и отчасти так оно и есть.-Доп. информация:
-Раздача от: by DeTorquemada-Качество: BDRip 544p
Формат видео: MKV
Видео: 1280x544 at 23.976 fps, High@L4.1, ~5082 Kbps
Аудио#1: Russian: 48kHz/16-bit, AC3, 3/2 (L,C,R,l,r) + LFE ch, ~640 kbps |Одноголосый закадровый, А. Дасевич|
Аудио#2: Russian: 48kHz/16-bit, AC3, 3/2 (L,C,R,l,r) + LFE ch, ~640 kbps |Одноголосый закадровый, M. Алексеев|
Аудио#3: German: 48kHz/16-bit, AC3, 3/2 (L,C,R,l,r) + LFE ch, ~640 kbps |Йозеф Вильсмайер / Joseph Vilsmaier|
Аудио#4: English: 48kHz/16-bit, AC3, 3/2 (L,C,R,l,r) + LFE ch, ~640 kbps
Субтитры: Russian, German (voll + geographische Namen), English (geographical names), French, Italian, Spanish
-
  • Сохранены оригинальные главы как на Blu-ray.
  • Озвучка выполнено в рамках сервиса "Озвучивание". Спонсоры: BlinchikDiv, tambov68, Snow_Leopard, qwert54326.

-

MediaInfo

GeneralУникальный идентификатор : 196562298255294551588159743992370034396 (0x93E085888B3D785EAA1BDC4BB247F6DC)Полное имя : E:\Мои релизы\Бавария – Путешествие мечты Bavaria - Traumreise durch Bayern.mkvФормат : MatroskaВерсия формата : Version 4 / Version 2Размер файла : 5.08 GiBПродолжительность : 1h 33mnОбщий поток : 7 797 KbpsНазвание фильма : Create by DeTorquemada for HDCLUBДата кодирования : UTC 2015-03-28 15:05:26Программа кодирования : mkvmerge v7.2.0 ('On Every Street') 64bit built on Sep 13 2014 15:52:10Библиотека кодирования : libebml v1.3.0 + libmatroska v1.4.1
VideoИдентификатор : 1Формат : AVCФормат/Информация : Advanced Video CodecПрофиль формата : High@L4.1Параметр CABAC формата : YesПараметр ReFrames формата : 11 framesИдентификатор кодека : V_MPEG4/ISO/AVCПродолжительность : 1h 33mnБитрейт : 5 082 KbpsШирина : 1 280 pixelsВысота : 544 pixelsСоотношение сторон : 2.35:1Режим частоты кадров : ConstantЧастота кадров : 23.976 fpsЦветовое пространство : YUVСубдискретизация насыщенности : 4:2:0Битовая глубина : 8 bitsТип развёртки : ProgressiveБит/(Пиксели*Кадры) : 0.304Размер потока : 3.31 GiB (65%)Заголовок : Бавария – Путешествие мечты / Bavaria - Traumreise durch Bayern (2012) - Release for HDCLUBБиблиотека кодирования : x264 core 142 r2431 ac76440Настройки программы : cabac=1 / ref=11 / deblock=1:-3:-3 / analyse=0x3:0x113 / me=umh / subme=10 / psy=1 / psy_rd=1.00:0.00 / mixed_ref=1 / me_range=48 / chroma_me=1 / trellis=2 / 8x8dct=1 / cqm=0 / deadzone=21,11 / fast_pskip=1 / chroma_qp_offset=-2 / threads=6 / lookahead_threads=1 / sliced_threads=0 / nr=0 / decimate=1 / interlaced=0 / bluray_compat=0 / constrained_intra=0 / bframes=3 / b_pyramid=2 / b_adapt=2 / b_bias=0 / direct=1 / weightb=1 / open_gop=0 / weightp=2 / keyint=240 / keyint_min=23 / scenecut=40 / intra_refresh=0 / rc_lookahead=65 / rc=crf / mbtree=0 / crf=18.0 / qcomp=0.60 / qpmin=0 / qpmax=69 / qpstep=4 / vbv_maxrate=50000 / vbv_bufsize=62500 / crf_max=0.0 / nal_hrd=none / filler=0 / ip_ratio=1.40 / pb_ratio=1.30 / aq=1:0.80Язык : GermanDefault : YesForced : NoMatrix coefficients : BT.709
Audio #1Идентификатор : 2Формат : AC-3Формат/Информация : Audio Coding 3Расширение режима : CM (complete main)Параметр Endianness формата : BigИдентификатор кодека : A_AC3Продолжительность : 1h 33mnВид битрейта : ConstantБитрейт : 640 KbpsКаналы : 6 channelsРасположение каналов : Front: L C R, Side: L R, LFEЧастота : 48.0 KHzБитовая глубина : 16 bitsМетод сжатия : LossyРазмер потока : 427 MiB (8%)Заголовок : 48kHz/16-bit, AC3, 3/2 (L,C,R,l,r) + LFE ch, ~640 kbps - Одноголосый закадровый, А. ДасевичЯзык : RussianDefault : YesForced : No
Audio #2Идентификатор : 3Формат : AC-3Формат/Информация : Audio Coding 3Расширение режима : CM (complete main)Параметр Endianness формата : BigИдентификатор кодека : A_AC3Продолжительность : 1h 33mnВид битрейта : ConstantБитрейт : 640 KbpsКаналы : 6 channelsРасположение каналов : Front: L C R, Side: L R, LFEЧастота : 48.0 KHzБитовая глубина : 16 bitsМетод сжатия : LossyРазмер потока : 427 MiB (8%)Заголовок : 48kHz/16-bit, AC3, 3/2 (L,C,R,l,r) + LFE ch, ~640 kbps - Одноголосый закадровый, М. АлексеевЯзык : RussianDefault : NoForced : No
Audio #3Идентификатор : 4Формат : AC-3Формат/Информация : Audio Coding 3Расширение режима : CM (complete main)Параметр Endianness формата : BigИдентификатор кодека : A_AC3Продолжительность : 1h 33mnВид битрейта : ConstantБитрейт : 640 KbpsКаналы : 6 channelsРасположение каналов : Front: L C R, Side: L R, LFEЧастота : 48.0 KHzБитовая глубина : 16 bitsМетод сжатия : LossyРазмер потока : 427 MiB (8%)Заголовок : 48kHz/16-bit, AC3, 3/2 (L,C,R,l,r) + LFE ch, ~640 kbps - Joseph VilsmaierЯзык : GermanDefault : NoForced : No
Audio #4Идентификатор : 5Формат : AC-3Формат/Информация : Audio Coding 3Расширение режима : CM (complete main)Параметр Endianness формата : BigИдентификатор кодека : A_AC3Продолжительность : 1h 33mnВид битрейта : ConstantБитрейт : 640 KbpsКаналы : 6 channelsРасположение каналов : Front: L C R, Side: L R, LFEЧастота : 48.0 KHzБитовая глубина : 16 bitsМетод сжатия : LossyРазмер потока : 427 MiB (8%)Заголовок : 48kHz/16-bit, AC3, 3/2 (L,C,R,l,r) + LFE ch, ~640 kbpsЯзык : EnglishDefault : NoForced : No
Text #1Идентификатор : 6Формат : UTF-8Идентификатор кодека : S_TEXT/UTF8Идентификатор кодека/Информация : UTF-8 Plain TextЗаголовок : Subtitles/CaptionsЯзык : RussianDefault : NoForced : No
Text #2Идентификатор : 7Формат : UTF-8Идентификатор кодека : S_TEXT/UTF8Идентификатор кодека/Информация : UTF-8 Plain TextЗаголовок : Subtitles/Captions (voll)Язык : GermanDefault : NoForced : No
Text #3Идентификатор : 8Формат : UTF-8Идентификатор кодека : S_TEXT/UTF8Идентификатор кодека/Информация : UTF-8 Plain TextЗаголовок : Subtitles/Captions (geographische Namen)Язык : GermanDefault : NoForced : No
Text #4Идентификатор : 9Формат : UTF-8Идентификатор кодека : S_TEXT/UTF8Идентификатор кодека/Информация : UTF-8 Plain TextЗаголовок : Subtitles/Captions (geographical names)Язык : EnglishDefault : NoForced : No
Text #5Идентификатор : 10Формат : UTF-8Идентификатор кодека : S_TEXT/UTF8Идентификатор кодека/Информация : UTF-8 Plain TextЗаголовок : Subtitles/CaptionsЯзык : FrenchDefault : NoForced : No
Text #6Идентификатор : 11Формат : UTF-8Идентификатор кодека : S_TEXT/UTF8Идентификатор кодека/Информация : UTF-8 Plain TextЗаголовок : Subtitles/CaptionsЯзык : ItalianDefault : NoForced : No
Text #7Идентификатор : 12Формат : UTF-8Идентификатор кодека : S_TEXT/UTF8Идентификатор кодека/Информация : UTF-8 Plain TextЗаголовок : Subtitles/CaptionsЯзык : SpanishDefault : NoForced : No
Menu00:00:00.000 : en:00:08:04.650 : en:00:15:31.722 : en:00:22:11.413 : en:00:25:02.542 : en:00:29:45.909 : en:00:34:32.737 : en:00:47:15.040 : en:00:49:25.837 : en:00:53:16.526 : en:00:56:36.559 : en:01:03:03.529 : en:01:10:49.828 : en:01:18:21.279 : en:01:23:20.036 : en:01:28:00.525 : en:01:31:35.448 : en:

-

Скриншоты

-ПРИЯТНОГО ПРОСМОТРА!-
[Профиль] [ЛС]
Кто просматривает тему:

Форум Тема Автор Размер
Viasat Nature Viasat Nature: Баварское горное королевство / Allgäu - Im Land des Märchenkönigs (Bavaria's Alpine Kingdom) (Жан Хафт / Jan Haft) [2009 г., Документальный, путешествия, природа, SATRip] skorpionN 786 MB
Лига Чемпионов Лига Чемпионов 2014-2015 / 1/4 финала / Ответный матч / Бавария Мюнхен (Германия) — Порту (Португалия) / НТВ+ Футбол 2 HD [21.04.2015, Футбол, HDTVRip/720p/50fps, MKV/H.264, RU] Russian Mafia 2.5 GB
Футбол Футбол. Audi Cup 2015. Финал. Бавария (Германия) - Реал Мадрид (Испания) [05.08] (2015) HDTVRip 720p | 50 fps sergej644 2.96 GB
Лига Чемпионов Футбол. Лига чемпионов 2014-15. 1/2 финала. Первый матч. Барселона (Испания) - Бавария (Германия) [06.05] (2015) HDTVRip 720p | 50 fps Russian Mafia 3.29 GB
Лига Чемпионов Футбол. Лига чемпионов 2014-15. 1/8 финала. Ответный матч. Бавария - Шахтёр [11.03] (2015) HDTVRip 720p | 50 fps sergej644 3.21 GB
Лига Чемпионов Футбол. Лига чемпионов 2014-15. Группа E. 4-й тур. Бавария Мюнхен (Германия) — Рома (Италия) [05.11] (2014) HDRip sergej644 1.55 GB
Лига Чемпионов Футбол. Лига Чемпионов 2014-2015. Группа E. 3-й тур. Рома (Италия) - Бавария (Германия) [21.10] (2014) HDTV 1080р от waPBX sergej644 4.57 GB
Лига Чемпионов Футбол. Лига Чемпионов 2014-2015. Группа E. 5-й тур. Манчестер Сити (Англия) - Бавария (Германия) [25.11] (2014) HDTVRip 720p | 50 FPS sergej644 3.37 GB
Показать сообщения:    

Текущее время: Сегодня 18:48

Часовой пояс: GMT



Вы не можете начинать темы
Вы не можете отвечать на сообщения
Вы не можете редактировать свои сообщения
Вы не можете удалять свои сообщения
Вы не можете голосовать в опросах
Вы не можете прикреплять файлы к сообщениям
Вы не можете скачивать файлы