Бабушкин козлик (Леонид Амальрик) [1963, Рисованный мультфильм, SATRip]

 
Автор Сообщение

TorrentFilm ®

Пол:

Стаж: 2 года

Сообщений: 7741



Награды: Нет

Торрент-статистика

Создавать темы 01-Янв-2016 00:22

[Цитировать]

Бабушкин козлик. Сказка для взрослых
Страна: СССР
Жанр: Рисованный мультфильм
Продолжительность: 00:17:38
Год выпуска: 1963
Русские субтитры: нет
Режиссёр: Леонид Амальрик
Роли озвучивали: Ю.Юльская (Козлик), Е.Понсова (Бабушка), А.Папанов (1 волк),Н.Граббе (2 волк),Г.Вицин (3 волк).
Описание: Сюжет песенки о непослушном сереньком козлике.Мультфильм является поучительным и рассказывается в нем история о маленьком козлике, который никогда не слушался указаний старших людей из-за этого он попадает в разные опасности и напоминает взрослым о том, как опасно во всем потакать детям.
Доп. информация:
сценарист: Ф.Кривин
художник-постановщик Н.Привалова,Т.Сазонова
xудожники: Фёдор Хитрук,В.Арбеков,Р.Миренкова,О.Столбова,Т.Таранович
оператор: М.Друян
композитор: Никита Богословский
Релиз группы:
Качество: SATRip
Формат: AVI
Видео: 640x480 (1.33:1), 25 fps, XviD MPEG-4 ~2149 kbps avg, 0.28 bit/pixel
Аудио: 48 kHz, AC3 Dolby Digital, 2/0 (L,R) ch, ~192.00 kbps avg
Субтитры: нет

Подробные технические данные

Format : AVIFormat/Info : Audio Video InterleaveFile size : 297 MiBDuration : 17mn 38sOverall bit rate : 2 351 KbpsWriting application : VirtualDubModRus 1.5.10.2 (build 2542/release)Copyright : Rutracker.orgComment : SATRip by dvdss
VideoID : 0Format : MPEG-4 VisualFormat profile : Advanced Simple@L5Format settings, BVOP : 2Format settings, QPel : NoFormat settings, GMC : No warppointsFormat settings, Matrix : CustomCodec ID : XVIDCodec ID/Hint : XviDDuration : 17mn 38sBit rate : 2 149 KbpsWidth : 640 pixelsHeight : 480 pixelsDisplay aspect ratio : 1.222Original display aspect ratio : 4:3Frame rate : 25.000 fpsColor space : YUVChroma subsampling : 4:2:0Bit depth : 8 bitsScan type : ProgressiveCompression mode : LossyBits/(Pixel*Frame) : 0.280Stream size : 271 MiB (91%)Writing library : XviD 65
AudioID : 1Format : AC-3Format/Info : Audio Coding 3Mode extension : CM (complete main)Format settings, Endianness : BigCodec ID : 2000Duration : 17mn 38sBit rate mode : ConstantBit rate : 192 KbpsChannel(s) : 2 channelsChannel positions : Front: L RSampling rate : 48.0 KHzBit depth : 16 bitsCompression mode : LossyStream size : 24.2 MiB (8%)Alignment : Split accross interleavesInterleave, duration : 40 ms (1.00 video frame)Interleave, preload duration : 500 ms
[Профиль] [ЛС]
Показать сообщения:    

Текущее время: Сегодня 08:11

Часовой пояс: GMT



Вы не можете начинать темы
Вы не можете отвечать на сообщения
Вы не можете редактировать свои сообщения
Вы не можете удалять свои сообщения
Вы не можете голосовать в опросах
Вы не можете прикреплять файлы к сообщениям
Вы не можете скачивать файлы