Бабушка / Grandma (2015) BDRip-AVC | iTunes

 
Автор Сообщение

достали все ®

Пол:

Стаж: 1 год 8 месяцев

Сообщений: 6600



Награды: 12 (Подробнее)

Mega Seeder 4 (Количество: 1) Mega Releaser 3 (Количество: 1) Top Releaser 4 (Количество: 1)
Торрент-статистика

Создавать темы 12-Фев-2016 05:25

[Цитировать]

Страна: США
Жанр: драма, комедия
Год выпуска: 2015
Продолжительность: 01:18:43
Перевод: Профессиональный (многоголосый, закадровый) (iTunes)
Режиссер: Пол Вайц / Paul Weitz
В ролях: Лили Томлин, Джулия Гарнер, Марша Гей Харден, Джуди Грир, Лаверн Кокс, Элизабет Пенья, Нат Вулф, Сара Бёрнс, Джон Чо, Сэм Эллиотт
Описание: Девушка-подросток сталкивается с незапланированной беременностью и отправляется за помощью к своей бабушке, которая давно отдалилась от своей дочери...

MPAA: R - Лицам до 17 лет обязательно присутствие взрослого
Качество: BDRip-AVC | BDRemux bluebird | SAMPLE
Контейнер: MKV
Видео: AVC, 1024x552 (1.855), 2263 kbps, 23,976 fps, 0,167 bpp
Аудио: AC3 / 5.1 / 48 kHz / 384 kbps / 16 bit

Скриншоты

Media Info

General
Unique ID : 242005684295475015127999345342876841030 (0xB6109972E94DA719B2D30A5193197446)
Complete name : F:Babushka.2015.BDRip.by.NewTeam.mkv
Format : Matroska
Format version : Version 2
File size : 1.46 GiB
Duration : 1h 18mn
Overall bit rate : 2 648 Kbps
Encoded date : UTC 2016-02-12 00:32:30
Writing application : mkvmerge v7.8.0 ('River Man') 32bit built on Apr 3 2015 12:11:22
Writing library : libebml v1.3.1 + libmatroska v1.4.2
Video
ID : 1
Format : AVC
Format/Info : Advanced Video Codec
Format profile : Main@L4.1
Format settings, CABAC : Yes
Format settings, ReFrames : 9 frames
Codec ID : V_MPEG4/ISO/AVC
Duration : 1h 18mn
Bit rate : 2 263 Kbps
Width : 1 024 pixels
Height : 552 pixels
Display aspect ratio : 1.85:1
Frame rate mode : Constant
Frame rate : 23.976 (24000/1001) fps
Color space : YUV
Chroma subsampling : 4:2:0
Bit depth : 8 bits
Scan type : Progressive
Bits/(Pixel*Frame) : 0.167
Stream size : 1.22 GiB (84%)
Writing library : x264 core 146 r2538 121396c
Encoding settings : cabac=1 / ref=9 / deblock=1:-2:-2 / analyse=0x1:0x111 / me=hex / subme=7 / psy=1 / psy_rd=1.00:0.20 / mixed_ref=1 / me_range=16 / chroma_me=1 / trellis=2 / 8x8dct=0 / cqm=0 / deadzone=21,11 / fast_pskip=0 / chroma_qp_offset=-3 / threads=3 / lookahead_threads=1 / sliced_threads=0 / nr=0 / decimate=0 / interlaced=0 / bluray_compat=0 / constrained_intra=0 / bframes=9 / b_pyramid=2 / b_adapt=2 / b_bias=0 / direct=3 / weightb=1 / open_gop=0 / weightp=2 / keyint=250 / keyint_min=23 / scenecut=40 / intra_refresh=0 / rc_lookahead=50 / rc=2pass / mbtree=1 / bitrate=2263 / ratetol=1.0 / qcomp=0.60 / qpmin=0 / qpmax=69 / qpstep=4 / cplxblur=20.0 / qblur=0.5 / vbv_maxrate=14000 / vbv_bufsize=14000 / nal_hrd=none / filler=0 / ip_ratio=1.40 / aq=1:1.00
Default : Yes
Forced : No
Color range : Limited
Color primaries : Generic film
Audio
ID : 2
Format : AC-3
Format/Info : Audio Coding 3
Mode extension : CM (complete main)
Format settings, Endianness : Big
Codec ID : A_AC3
Duration : 1h 18mn
Bit rate mode : Constant
Bit rate : 384 Kbps
Channel(s) : 6 channels
Channel positions : Front: L C R, Side: L R, LFE
Sampling rate : 48.0 KHz
Frame rate : 31.250 fps (1536 spf)
Compression mode : Lossy
Stream size : 216 MiB (15%)
Default : Yes
Forced : No
[Профиль] [ЛС]
Показать сообщения:    

Текущее время: Сегодня 03:22

Часовой пояс: GMT



Вы не можете начинать темы
Вы не можете отвечать на сообщения
Вы не можете редактировать свои сообщения
Вы не можете удалять свои сообщения
Вы не можете голосовать в опросах
Вы не можете прикреплять файлы к сообщениям
Вы не можете скачивать файлы