(Heavy Metal) А. Чернышёв и А. Булгаков - Плач оборванной струны (2CD) - 2015 [FLAC, image +.cue, lossless]

 
Автор Сообщение

sergej644 ®

Пол:

Стаж: 4 года 11 месяцев

Сообщений: 6046

Откуда: Soviet Union



Награды: Нет

Торрент-статистика

Создавать темы 04-Фев-2016 13:17

[Цитировать]

-А. Чернышёв и А. Булгаков - Плач оборванной струны (2CD) - 2015--
Год издания: 2015
Страна: Russia
Жанр: Heavy Metal
Продолжительность: 02:07:38-Лейбл издания: Metalist Records
Страна-выпуска диска: Russia
Номер по каталогу: MR 138-15-Формат: FLAC
Битрейт аудио: Lossless
Тип рипа: image +.cue
Наличие сканов в содержимом раздачи: да
-

Трэклист

CD 1 | 00:51:25


01. Хозяин Зла (05:35)
02. Смотритель маяка (03:37)
03. Поэт (04:23)
04. Помнить (03:59)
05. В неведомую даль (03:35)
06. Плач оборванной струны (05:45)
07. Острова (04:00)
08. Армагеддон (04:21)
09. Генуэзский закат (02:04)
10. 19 лет (05:43)
11. Гладиатор (03:48)
12. Актёр (04:40)

CD 2 (Bonus CD) | 01:16:13


01. Каменный лес (1997) (06:04)
02. Смотритель маяка (2013) (03:34)
03. Легион (03:52)
04. Мир под секретом (03:56)
05. Листопад (04:17)
06. Мираж (04:30)
07. Грусть (06:16)
08. Волшебник (03:00)
09. Взлёт (04:53)
10. Листопад (05:02)
11. Белый глас (инстр.) (05:29)
12. Волшебник (инстр.) (02:24)
13. Верность Солнцу (инстр.) (04:53)
14. Всё пройдёт (04:46)
15. Твой путь (инстр.) (04:08)
16. Листопад (инстр.) (05:06)
17. Взлёт (04:38)
-

Лог создания рипа

CD 1

Exact Audio Copy V1.0 beta 3 from 29. August 2011
Отчёт EAC об извлечении, выполненном 11. сентября 2015, 22:54
Алексей Чернышёв и Алексей Булгаков / Плач оборванной струны (CD1)
Дисковод: ASUS    DRW-24F1ST   a   Adapter: 2  ID: 0
Режим чтения                 : Достоверность
Использование точного потока : Да
Отключение кэша аудио        : Да
Использование указателей C2  : Нет
Коррекция смещения при чтении                     : 6
Способность читать области Lead-in и Lead-out     : Нет
Заполнение пропущенных сэмплов тишиной            : Да
Удаление блоков с тишиной в начале и конце        : Нет
При вычислениях CRC использовались нулевые сэмплы : Да
Интерфейс                                         : Встроенный Win32-интерфейс для Win NT/2000
Выходной формат : Внутренние WAV-операции
Формат сэмплов  : 44.100 Гц; 16 бит; стерео
TOC извлечённого CD
     Трек |   Старт  | Длительность | Начальный сектор | Конечный сектор
    ---------------------------------------------------------------------
       1  |  0:00.00 |    5:34.11   |           0      |      25060
       2  |  5:34.11 |    3:36.19   |       25061      |      41279
       3  |  9:10.30 |    4:22.19   |       41280      |      60948
       4  | 13:32.49 |    3:58.71   |       60949      |      78869
       5  | 17:31.45 |    3:34.64   |       78870      |      94983
       6  | 21:06.34 |    5:44.11   |       94984      |     120794
       7  | 26:50.45 |    4:00.00   |      120795      |     138794
       8  | 30:50.45 |    4:20.01   |      138795      |     158295
       9  | 35:10.46 |    2:03.69   |      158296      |     167589
      10  | 37:14.40 |    5:42.43   |      167590      |     193282
      11  | 42:57.08 |    3:47.34   |      193283      |     210341
      12  | 46:44.42 |    4:39.59   |      210342      |     231325
Характеристики диапазона извлечения и сообщения об ошибках
Выбранный диапазон
     Имя файла X:\Temps\Алексей Чернышёв и Алексей Булгаков - Плач оборванной струны (CD1).wav
     Пиковый уровень 100.0 %
     Скорость извлечения 7.8 X
     Качество диапазона 100.0 %
     CRC теста 389F80C8
     CRC копии 389F80C8
     Копирование... OK
Ошибок не произошло
AccurateRip: сводка
Трек  1  отсутствует в базе данных
Трек  2  отсутствует в базе данных
Трек  3  отсутствует в базе данных
Трек  4  отсутствует в базе данных
Трек  5  отсутствует в базе данных
Трек  6  отсутствует в базе данных
Трек  7  отсутствует в базе данных
Трек  8  отсутствует в базе данных
Трек  9  отсутствует в базе данных
Трек 10  отсутствует в базе данных
Трек 11  отсутствует в базе данных
Трек 12  отсутствует в базе данных
Ни одного трека нет в базе AccurateRip
Конец отчёта

CD 2

Exact Audio Copy V1.0 beta 3 from 29. August 2011
Отчёт EAC об извлечении, выполненном 11. сентября 2015, 23:20
Алексей Чернышёв и Алексей Булгаков / Плач оборванной струны (CD2)
Дисковод: ASUS    DRW-24F1ST   a   Adapter: 2  ID: 0
Режим чтения                 : Достоверность
Использование точного потока : Да
Отключение кэша аудио        : Да
Использование указателей C2  : Нет
Коррекция смещения при чтении                     : 6
Способность читать области Lead-in и Lead-out     : Нет
Заполнение пропущенных сэмплов тишиной            : Да
Удаление блоков с тишиной в начале и конце        : Нет
При вычислениях CRC использовались нулевые сэмплы : Да
Интерфейс                                         : Встроенный Win32-интерфейс для Win NT/2000
Выходной формат : Внутренние WAV-операции
Формат сэмплов  : 44.100 Гц; 16 бит; стерео
TOC извлечённого CD
     Трек |   Старт  | Длительность | Начальный сектор | Конечный сектор
    ---------------------------------------------------------------------
       1  |  0:00.00 |    6:03.36   |           0      |      27260
       2  |  6:03.36 |    3:33.56   |       27261      |      43291
       3  |  9:37.17 |    3:51.47   |       43292      |      60663
       4  | 13:28.64 |    3:55.72   |       60664      |      78360
       5  | 17:24.61 |    4:16.52   |       78361      |      97612
       6  | 21:41.38 |    4:29.43   |       97613      |     117830
       7  | 26:11.06 |    6:15.14   |      117831      |     145969
       8  | 32:26.20 |    2:59.36   |      145970      |     159430
       9  | 35:25.56 |    4:52.65   |      159431      |     181395
      10  | 40:18.46 |    5:01.41   |      181396      |     204011
      11  | 45:20.12 |    5:28.51   |      204012      |     228662
      12  | 50:48.63 |    2:23.65   |      228663      |     239452
      13  | 53:12.53 |    4:52.72   |      239453      |     261424
      14  | 58:05.50 |    4:45.44   |      261425      |     282843
      15  | 62:51.19 |    4:07.60   |      282844      |     301428
      16  | 66:59.04 |    5:05.53   |      301429      |     324356
      17  | 72:04.57 |    4:38.00   |      324357      |     345206
Характеристики диапазона извлечения и сообщения об ошибках
Выбранный диапазон
     Имя файла X:\Temps\Алексей Чернышёв и Алексей Булгаков - Плач оборванной струны (CD2).wav
     Пиковый уровень 100.0 %
     Скорость извлечения 8.6 X
     Качество диапазона 100.0 %
     CRC теста 7842829F
     CRC копии 7842829F
     Копирование... OK
Ошибок не произошло
AccurateRip: сводка
Трек  1  отсутствует в базе данных
Трек  2  отсутствует в базе данных
Трек  3  отсутствует в базе данных
Трек  4  отсутствует в базе данных
Трек  5  отсутствует в базе данных
Трек  6  отсутствует в базе данных
Трек  7  отсутствует в базе данных
Трек  8  отсутствует в базе данных
Трек  9  отсутствует в базе данных
Трек 10  отсутствует в базе данных
Трек 11  отсутствует в базе данных
Трек 12  отсутствует в базе данных
Трек 13  отсутствует в базе данных
Трек 14  отсутствует в базе данных
Трек 15  отсутствует в базе данных
Трек 16  отсутствует в базе данных
Трек 17  отсутствует в базе данных
Ни одного трека нет в базе AccurateRip
Конец отчёта

Индексная карта (non-compilant .cue)

CD 1

REM GENRE "Heavy Metal"
REM DATE 2015
REM DISCID 950C0C0C
REM COMMENT "ExactAudioCopy v1.0b3"
PERFORMER "Алексей Чернышёв и Алексей Булгаков"
TITLE "Плач оборванной струны (CD1)"
FILE "Алексей Чернышёв и Алексей Булгаков - Плач оборванной струны (CD1).flac" WAVE
  TRACK 01 AUDIO
    TITLE "Хозяин Зла"
    PERFORMER "Алексей Чернышёв и Алексей Булгаков"
    INDEX 01 00:00:00
  TRACK 02 AUDIO
    TITLE "Смотритель маяка"
    PERFORMER "Алексей Чернышёв и Алексей Булгаков"
    INDEX 01 05:34:11
  TRACK 03 AUDIO
    TITLE "Поэт"
    PERFORMER "Алексей Чернышёв и Алексей Булгаков"
    INDEX 01 09:10:30
  TRACK 04 AUDIO
    TITLE "Помнить"
    PERFORMER "Алексей Чернышёв и Алексей Булгаков"
    INDEX 01 13:32:49
  TRACK 05 AUDIO
    TITLE "В неведомую даль"
    PERFORMER "Алексей Чернышёв и Алексей Булгаков"
    INDEX 01 17:31:45
  TRACK 06 AUDIO
    TITLE "Плач оборванной струны"
    PERFORMER "Алексей Чернышёв и Алексей Булгаков"
    INDEX 01 21:06:34
  TRACK 07 AUDIO
    TITLE "Острова"
    PERFORMER "Алексей Чернышёв и Алексей Булгаков"
    INDEX 01 26:50:45
  TRACK 08 AUDIO
    TITLE "Армагеддон"
    PERFORMER "Алексей Чернышёв и Алексей Булгаков"
    INDEX 01 30:50:45
  TRACK 09 AUDIO
    TITLE "Генуэзский закат"
    PERFORMER "Алексей Чернышёв и Алексей Булгаков"
    INDEX 01 35:10:46
  TRACK 10 AUDIO
    TITLE "19 лет"
    PERFORMER "Алексей Чернышёв и Алексей Булгаков"
    INDEX 01 37:14:40
  TRACK 11 AUDIO
    TITLE "Гладиатор"
    PERFORMER "Алексей Чернышёв и Алексей Булгаков"
    INDEX 01 42:57:08
  TRACK 12 AUDIO
    TITLE "Актёр"
    PERFORMER "Алексей Чернышёв и Алексей Булгаков"
    INDEX 01 46:44:42

CD 2

REM GENRE "Heavy Metal"
REM DATE 2015
REM DISCID E011FA11
REM COMMENT "ExactAudioCopy v1.0b3"
PERFORMER "Алексей Чернышёв и Алексей Булгаков"
TITLE "Плач оборванной струны (CD2)"
FILE "Алексей Чернышёв и Алексей Булгаков - Плач оборванной струны (CD2).flac" WAVE
  TRACK 01 AUDIO
    TITLE "Каменный лес (1997)"
    PERFORMER "Алексей Чернышёв и Алексей Булгаков"
    INDEX 01 00:00:00
  TRACK 02 AUDIO
    TITLE "Смотритель маяка (2013)"
    PERFORMER "Алексей Чернышёв и Алексей Булгаков"
    INDEX 01 06:03:36
  TRACK 03 AUDIO
    TITLE "Легион"
    PERFORMER "Алексей Чернышёв и Алексей Булгаков"
    INDEX 01 09:37:17
  TRACK 04 AUDIO
    TITLE "Мир под секретом"
    PERFORMER "Алексей Чернышёв и Алексей Булгаков"
    INDEX 01 13:28:64
  TRACK 05 AUDIO
    TITLE "Листопад"
    PERFORMER "Алексей Чернышёв и Алексей Булгаков"
    INDEX 01 17:24:61
  TRACK 06 AUDIO
    TITLE "Мираж"
    PERFORMER "Алексей Чернышёв и Алексей Булгаков"
    INDEX 01 21:41:38
  TRACK 07 AUDIO
    TITLE "Грусть"
    PERFORMER "Алексей Чернышёв и Алексей Булгаков"
    INDEX 01 26:11:06
  TRACK 08 AUDIO
    TITLE "Волшебник"
    PERFORMER "Алексей Чернышёв и Алексей Булгаков"
    INDEX 01 32:26:20
  TRACK 09 AUDIO
    TITLE "Взлёт"
    PERFORMER "Алексей Чернышёв и Алексей Булгаков"
    INDEX 01 35:25:56
  TRACK 10 AUDIO
    TITLE "Листопад"
    PERFORMER "Алексей Чернышёв и Алексей Булгаков"
    INDEX 01 40:18:46
  TRACK 11 AUDIO
    TITLE "Белый глас (инстр.)"
    PERFORMER "Алексей Чернышёв и Алексей Булгаков"
    INDEX 01 45:20:12
  TRACK 12 AUDIO
    TITLE "Волшебник (инстр.)"
    PERFORMER "Алексей Чернышёв и Алексей Булгаков"
    INDEX 01 50:48:63
  TRACK 13 AUDIO
    TITLE "Верность Солнцу (инстр.)"
    PERFORMER "Алексей Чернышёв и Алексей Булгаков"
    INDEX 01 53:12:53
  TRACK 14 AUDIO
    TITLE "Всё пройдёт"
    PERFORMER "Алексей Чернышёв и Алексей Булгаков"
    INDEX 01 58:05:50
  TRACK 15 AUDIO
    TITLE "Твой путь (инстр.)"
    PERFORMER "Алексей Чернышёв и Алексей Булгаков"
    INDEX 01 62:51:19
  TRACK 16 AUDIO
    TITLE "Листопад (инстр.)"
    PERFORMER "Алексей Чернышёв и Алексей Булгаков"
    INDEX 01 66:59:04
  TRACK 17 AUDIO
    TITLE "Взлёт"
    PERFORMER "Алексей Чернышёв и Алексей Булгаков"
    INDEX 01 72:04:57
--
[Профиль] [ЛС]
Показать сообщения:    

Текущее время: Сегодня 05:19

Часовой пояс: GMT



Вы не можете начинать темы
Вы не можете отвечать на сообщения
Вы не можете редактировать свои сообщения
Вы не можете удалять свои сообщения
Вы не можете голосовать в опросах
Вы не можете прикреплять файлы к сообщениям
Вы не можете скачивать файлы