А снег кружит... (Владимир Тумаев) [2012, Россия, мелодрама, HDTV 1080i]

 
Автор Сообщение

TorrentFilm ®

Пол:

Стаж: 1 год 11 месяцев

Сообщений: 7741



Награды: Нет

Торрент-статистика

Создавать темы 02-Янв-2016 00:03

[Цитировать]

А снег кружит...
Жанр: мелодрама
Год выпуска: 2012
Продолжительность: 03:00:14
Режиссёр: Владимир Тумаев
В ролях: Юлия Кадушкевич, Сергей Загребнев, Валентина Лосовская, Вероника Пляшкевич, Максим Кречетов, Виктор Балабанов, Наталья Волчек, Ольга Аксёнова-Кавалай, Вера Кавалерова, Ольга Бурлакова, Анна Полупанова, Владимир Мищанчук, Вячеслав Павлють, Ирина Нарбекова, Владимир Божков, Елена Побегаева, Евгений Никитин, Евгения Жукович, Яна Касперович
Описание: Казалось бы, жизнь Лены - девочки из провинции - удалась. Она сделала всё, чтобы в свои неполные 30 лет стать известной телеведущей. У нее - красивый обеспеченный муж, ее ценят и уважают. Но за этим благополучным фасадом скрывается глубоко несчастный человек. Потому что нельзя стать счастливой, отказавшись от настоящей любви и собственного ребенка в угоду карьере и славе. И вот теперь, чтобы найти себя прежнюю, ей необходимо вернуться назад, вновь завоевать любимого и стать настоящей матерью. А еще ей предстоит узнать правду, которую от нее скрывали столько лет…
Доп. информация: Телеканал "Россия HD" показал ленту целиком, без разбивки на серии, даже не прерывая рекламой. Также на сайте телеканала указано, что это не сериал, а художественный фильм.
Релиз -
Запись чистая. Без посторонних надписей. Выкладывается, как есть.
Семпл: http://multi-up.com/837901
Качество видео: HDTV 1080i
Формат видео: MPEG-TS
Видео: AVC, 1920x1080 (16:9), 25 fps, 7853 Kbps, 0.151 bit/pixel
Аудио: MPEG Audio, 48 kHz, stereo, 192 Kbps

MediaInfo

ID : 1 (0x1)Complete name : А снег кружит... (2012, Мелодрама, HDTV) (MYDIMKA).tsFormat : MPEG-TSFile size : 10.6 GiBDuration : 3h 0mnOverall bit rate mode : VariableOverall bit rate : 8 445 Kbps
VideoID : 2911 (0xB5F)Menu ID : 1 (0x1)Format : AVCFormat/Info : Advanced Video CodecFormat profile : High@L4.0Format settings, CABAC : YesFormat settings, ReFrames : 4 framesCodec ID : 27Duration : 3h 0mnBit rate : 7 834 KbpsWidth : 1 920 pixelsHeight : 1 080 pixelsDisplay aspect ratio : 16:9Frame rate : 25.000 fpsColor space : YUVChroma subsampling : 4:2:0Bit depth : 8 bitsScan type : MBAFFBits/(Pixel*Frame) : 0.151Stream size : 9.86 GiB (93%)
AudioID : 2912 (0xB60)Menu ID : 1 (0x1)Format : MPEG AudioFormat version : Version 1Format profile : Layer 2Codec ID : 3Duration : 3h 0mnBit rate mode : ConstantBit rate : 192 KbpsChannel(s) : 2 channelsSampling rate : 48.0 KHzCompression mode : LossyStream size : 248 MiB (2%)Language : Russian

Скриншот c названием фильма

Скриншоты


[Профиль] [ЛС]
Кто просматривает тему:

Показать сообщения:    

Текущее время: Сегодня 07:05

Часовой пояс: GMT



Вы не можете начинать темы
Вы не можете отвечать на сообщения
Вы не можете редактировать свои сообщения
Вы не можете удалять свои сообщения
Вы не можете голосовать в опросах
Вы не можете прикреплять файлы к сообщениям
Вы не можете скачивать файлы