А вот и она / And So It Goes (2014) BDRip 720p | D | Лицензия

 
Автор Сообщение

sergej644 ®

Пол:

Стаж: 4 года 11 месяцев

Сообщений: 6046

Откуда: Soviet Union



Награды: Нет

Торрент-статистика

Создавать темы 10-Фев-2015 10:23

[Цитировать]

А вот и онаAnd So It Goes«Миллион причин не любить Орена. Спроси любого» Год выпуска: 2014
Страна: США
Жанр: мелодрама, комедия, драма
Продолжительность: 01:29:38
Перевод: Профессиональный (дублированный)
Режиссер: Роб Райнер

В ролях: Майкл Дуглас / Michael Douglas (Oren Little), Дайан Китон / Diane Keaton (Leah), Стерлинг Джеринс / Sterling Jerins (Sarah), Энни Пэррис / Annie Parisse (Kate), Остин Лайзи / Austin Lysy (Kyle), Майкл Терра / Michael Terra (Peter), Симпкинс Сойер / Sawyer Tanner Simpkins (Dylan), Максвелл Симкинс / Maxwell Simkins (Caleb)
Описание: Жизнь закоренелого эгоиста в одночасье меняется, когда он вдруг знакомится со своей внучкой, о существовании которой даже не подозревал.
Рейтинг MPAA: Детям до 13 лет просмотр не желателен


Качество: BDRip 720p
Формат: MKV
Видео кодек: H.264 (AVC)
Аудио кодеk: AC3
Видео: 1280x572 (2.25:1), 25.000 fps, AVC, 4306 Kbps
Аудио: AC3, 640 Kbps, 48.0 KHz, 6 ch RUS Dub

МедиаИнфо

General
Unique ID : 217977567278069641522485821166046719021 (0xA3FCF3D0A754728CAE18584AA01CAC2D)
Complete name : And.So.It.Goes.2014.720p.BluRay.Rus.HDCLUB-SbR.mkv
Format : Matroska
Format version : Version 4 / Version 2
File size : 3.16 GiB
Duration : 1h 29mn
Overall bit rate : 5 047 Kbps
Encoded date : UTC 2014-10-06 14:39:51
Writing application : mkvmerge v6.9.0 ('On Duende') 32bit built on Apr 18 2014 12:49:35
Writing library : libebml v1.3.0 + libmatroska v1.4.1
Video
ID : 1
Format : AVC
Format/Info : Advanced Video Codec
Format profile : High@L4.1
Format settings, CABAC : Yes
Format settings, ReFrames : 11 frames
Codec ID : V_MPEG4/ISO/AVC
Duration : 1h 29mn
Bit rate : 4 306 Kbps
Width : 1 280 pixels
Height : 572 pixels
Display aspect ratio : 2.25:1
Frame rate mode : Constant
Frame rate : 25.000 fps
Color space : YUV
Chroma subsampling : 4:2:0
Bit depth : 8 bits
Scan type : Progressive
Bits/(Pixel*Frame) : 0.235
Stream size : 2.70 GiB (85%)
Writing library : x264 core 142 r2479kMod dd79a61
Encoding settings : cabac=1 / ref=11 / deblock=1:-3:-3 / analyse=0x3:0x133 / me=tesa / subme=10 / psy=1 / fade_compensate=0.00 / psy_rd=1.00:0.05 / mixed_ref=1 / me_range=24 / chroma_me=1 / trellis=2 / 8x8dct=1 / cqm=0 / deadzone=21,11 / fast_pskip=0 / chroma_qp_offset=-3 / threads=6 / lookahead_threads=1 / sliced_threads=0 / nr=0 / decimate=1 / interlaced=0 / bluray_compat=0 / constrained_intra=0 / fgo=0 / bframes=12 / b_pyramid=2 / b_adapt=2 / b_bias=0 / direct=3 / weightb=1 / open_gop=0 / weightp=2 / keyint=250 / keyint_min=25 / scenecut=40 / intra_refresh=0 / rc_lookahead=60 / rc=crf / mbtree=0 / crf=16.0000 / qcomp=0.70 / qpmin=0 / qpmax=69 / qpstep=4 / vbv_maxrate=62500 / vbv_bufsize=78125 / crf_max=0.0 / nal_hrd=none / filler=0 / ip_ratio=1.30 / pb_ratio=1.20 / aq=1:0.80
Language : English
Default : Yes
Forced : No
Matrix coefficients : BT.709
Audio
ID : 2
Format : AC-3
Format/Info : Audio Coding 3
Mode extension : CM (complete main)
Format settings, Endianness : Big
Codec ID : A_AC3
Duration : 1h 29mn
Bit rate mode : Constant
Bit rate : 640 Kbps
Channel(s) : 6 channels
Channel positions : Front: L C R, Side: L R, LFE
Sampling rate : 48.0 KHz
Bit depth : 16 bits
Compression mode : Lossy
Stream size : 410 MiB (13%)
Language : Russian
Default : Yes
Forced : No
Menu
00:00:00.000 : en:00:00:00.000
00:07:48.000 : en:00:07:48.000
00:13:56.440 : en:00:13:56.440
00:22:24.160 : en:00:22:24.160
00:30:13.360 : en:00:30:13.360
00:37:30.000 : en:00:37:30.000
00:45:08.200 : en:00:45:08.200
00:51:43.160 : en:00:51:43.160
00:59:53.480 : en:00:59:53.480
01:07:57.400 : en:01:07:57.400
01:15:07.920 : en:01:15:07.920
01:22:34.120 : en:01:22:34.120

Знаете ли Вы, что...

★ Сисси Спейсек отказалась от роли, которая в итоге досталась Дайан Китон.
Релиз от:
[Профиль] [ЛС]
Показать сообщения:    

Текущее время: Сегодня 03:22

Часовой пояс: GMT



Вы не можете начинать темы
Вы не можете отвечать на сообщения
Вы не можете редактировать свои сообщения
Вы не можете удалять свои сообщения
Вы не можете голосовать в опросах
Вы не можете прикреплять файлы к сообщениям
Вы не можете скачивать файлы