А вот и она / And So It Goes (2014) WEB-DLRip-AVC от NovaLan | iTunes

 
Автор Сообщение

sergej644 ®

Пол:

Стаж: 4 года 11 месяцев

Сообщений: 6038

Откуда: Soviet Union



Награды: Нет

Торрент-статистика

Создавать темы 02-Сен-2014 13:55

[Цитировать]

--А вот и она / And So It Goes
Информация о фильме
Название: А вот и она
Оригинальное название: And So It Goes
Год выхода: 2014
Жанр: Комедия, драма, мелодрама
Режиссер: Роб Райнер
В ролях: Майкл Дуглас, Дайан Китон, Стерлинг Джеринс, Энни Парисс, Остин Лайзи, Майкл Терра, Симпкинс Сойер, Максвелл Симкинс, Морис Джонс, Йайа ДаКоста
О фильме:
Жизнь закоренелого эгоиста в одночасье меняется, когда он вдруг знакомится со своей внучкой, о существовании которой даже не подозревал

Страна: США
Студия: ASIG Productions, Castle Rock Entertainment, Envision Entertainment, Foresight Unlimited
Продолжительность: 01:29:38
Перевод: Дублированный (iTunes Russia)
Файл
Кодек: MPEG-4 AVC
Качество: WEB-DLRip-AVC
Видео: 1914 Кбит/с, 1024x456
Звук: AC3, 6 ch, 384 Кбит/с

Релиз

Рип от StarbirS
Релиз группы NovaLan
Аудио №: Russian: 48 kHz, AC3, 3/2 (L,C,R,l,r) + LFE ch, ~384.00 kbps avg -Дублированный (iTunes Russia)
x264 [info]: frame I:1341 Avg QP:15.91 size: 64972
x264 [info]: frame P:37231 Avg QP:17.95 size: 19107
x264 [info]: frame B:95895 Avg QP:20.47 size: 5072

Инфо-файл

Формат : Matroska
Версия формата : Version 4 / Version 2
Размер файла : 1,44 Гбайт
Продолжительность : 1 ч. 29 м.
Общий поток : 2297 Кбит/сек
Название фильма : And.So.It.Goes.2014.x264.D.WEB-DLRip.(AVC).NovaLan
Дата кодирования : UTC 2014-09-01 13:44:11
Программа кодирования : mkvmerge v7.1.0 ('Good Love') 64bit built on Jul 27 2014 13:06:55
Библиотека кодирования : libebml v1.3.0 + libmatroska v1.4.1
DURATION : 01:29:38.688000000
NUMBER_OF_FRAMES : 168084
NUMBER_OF_BYTES : 258177024
_STATISTICS_WRITING_APP : mkvmerge v7.1.0 ('Good Love') 64bit built on Jul 27 2014 13:06:55
_STATISTICS_WRITING_DATE_UTC : 2014-09-01 13:44:11
_STATISTICS_TAGS : BPS DURATION NUMBER_OF_FRAMES NUMBER_OF_BYTES
Видео
Идентификатор : 1
Формат : AVC
Формат/Информация : Advanced Video Codec
Профиль формата : High@L4.1
Параметр CABAC формата : Да
Параметр ReFrames формата : 10 кадров
Идентификатор кодека : V_MPEG4/ISO/AVC
Продолжительность : 1 ч. 29 м.
Битрейт : 1914 Кбит/сек
Ширина : 1024 пикселя
Высота : 456 пикселей
Соотношение сторон : 2,25:1
Режим частоты кадров : Постоянный
Частота кадров : 25,000 кадров/сек
Цветовое пространство : YUV
Субдискретизация насыщенности : 4:2:0
Битовая глубина : 8 бит
Тип развёртки : Прогрессивная
Бит/(Пиксели*Кадры) : 0.164
Размер потока : 1,17 Гбайт (81%)
Заголовок : And.So.It.Goes.2014.x264.D.WEB-DLRip.(AVC).by.StarbirS
Библиотека кодирования : x264 core 133 r2334 a3ac64b
Настройки программы : cabac=1 / ref=10 / deblock=1:-2:-2 / analyse=0x3:0x133 / me=umh / subme=11 / psy=1 / psy_rd=1.00:0.00 / mixed_ref=1 / me_range=48 / chroma_me=1 / trellis=2 / 8x8dct=1 / cqm=0 / deadzone=21,11 / fast_pskip=0 / chroma_qp_offset=1 / threads=12 / lookahead_threads=2 / sliced_threads=0 / nr=0 / decimate=1 / interlaced=0 / bluray_compat=0 / constrained_intra=0 / bframes=9 / b_pyramid=2 / b_adapt=2 / b_bias=0 / direct=3 / weightb=1 / open_gop=1 / weightp=2 / keyint=250 / keyint_min=23 / scenecut=40 / intra_refresh=0 / rc=2pass / mbtree=0 / bitrate=1914 / ratetol=1.0 / qcomp=0.60 / qpmin=10 / qpmax=51 / qpstep=4 / cplxblur=20.0 / qblur=0.5 / ip_ratio=1.40 / pb_ratio=1.30 / aq=1:0.80
Язык : English
Default : Да
Forced : Нет
Основные цвета : BT.709
DURATION : 01:29:38.680000000
NUMBER_OF_FRAMES : 134467
NUMBER_OF_BYTES : 1284831186
_STATISTICS_WRITING_APP : mkvmerge v7.1.0 ('Good Love') 64bit built on Jul 27 2014 13:06:55
_STATISTICS_WRITING_DATE_UTC : 2014-09-01 13:44:11
_STATISTICS_TAGS : BPS DURATION NUMBER_OF_FRAMES NUMBER_OF_BYTES
Аудио
Идентификатор : 2
Формат : AC-3
Формат/Информация : Audio Coding 3
Расширение режима : CM (complete main)
Параметр Endianness формата : Big
Идентификатор кодека : A_AC3
Продолжительность : 1 ч. 29 м.
Вид битрейта : Постоянный
Битрейт : 384 Кбит/сек
Каналы : 6 каналов
Расположение каналов : Front: L C R, Side: L R, LFE
Частота : 48,0 КГц
Битовая глубина : 16 бит
Метод сжатия : С потерями
Размер потока : 246 Мбайт (17%)
Заголовок : Дублированный (iTunes)
Язык : Russian
Default : Да
Forced : Нет
Меню
00:00:00.000 : en:Chapter 01
00:05:58.000 : en:Chapter 02
00:11:00.000 : en:Chapter 03
00:16:00.000 : en:Chapter 04
00:21:13.000 : en:Chapter 05
00:26:14.000 : en:Chapter 06
00:31:18.000 : en:Chapter 07
00:36:19.000 : en:Chapter 08
00:41:45.000 : en:Chapter 09
00:46:52.000 : en:Chapter 10
00:51:52.000 : en:Chapter 11
00:57:02.000 : en:Chapter 12
01:02:04.000 : en:Chapter 13
01:07:06.000 : en:Chapter 14
01:12:08.000 : en:Chapter 15
01:17:12.000 : en:Chapter 16
01:22:25.000 : en:Chapter 17

Скриншоты


Релиз от:
[Профиль] [ЛС]
Показать сообщения:    

Текущее время: Сегодня 22:11

Часовой пояс: GMT



Вы не можете начинать темы
Вы не можете отвечать на сообщения
Вы не можете редактировать свои сообщения
Вы не можете удалять свои сообщения
Вы не можете голосовать в опросах
Вы не можете прикреплять файлы к сообщениям
Вы не можете скачивать файлы