А вдруг это любовь? / Je crois que je laime (2007) DVDRip

 
Автор Сообщение

sergej644 ®

Пол:

Стаж: 4 года 11 месяцев

Сообщений: 6040

Откуда: Soviet Union



Награды: Нет

Торрент-статистика

Создавать темы 15-Фев-2015 17:35

[Цитировать]

-А вдруг это любовь? / Je crois que je laime (2007) DVDRip- Производство: Франция
Жанр: Комедия, мелодрама, драма
Режиссер: Пьер Жоливе
Актеры: Венсан Линдон, Сандрин Боннэр, Франсуа Берлеан, Кад Мерад, Лиан Фоли, Элен де Сен-Пер, Гилэн Лондез, Пьер Диот, Альбер Дрэ, Мар Содуп, Венантино Венантини, Брайан Бигг, Уильям Буагеро, Сильвана Гаспарини, Нэнси Тейт, Фридерик Бурбулон, Билл Данн, Матильда Левески, Пьер Шлюмберже, Жан-Пьерр Стюарт, Аллан Венгер
Описание фильма:
Крупный бизнесмен разочаровался в любви. Неожиданно для себя он увлекается 38-летней Эльзой. Успешная и красивая женщина не замужем. Это обстоятельство настораживает его, и боясь потерять и голову, и собственную компанию, он нанимает детектива. Догадавшись о планах поклонника, Эльза начинает собственную игру...
Перевод: Профессиональный многоголосый
Субтитры: Отсутствуют

Продолжительность: 01:25:19
Качество видео: DVDRip
Видеокодек: XviD
Битрейт видео: ~1790 Кбит/с
Размер кадра: 640x344
Аудиокодек: AC3 6 ch
Битрейт аудио: 448 Кбит/с

MediaInfo:

Общее
Полное имя : C:\NNM\А вдруг это любовь\Eto lubovj 2007 DVDRip.avi
Формат : AVI
Формат/Информация : Audio Video Interleave
Размер файла : 1,34 Гбайт
Продолжительность : 1 ч. 25 м.
Общий поток : 2248 Кбит/сек
Программа кодирования : VirtualDubMod 1.5.10.2 (build 2540/release)
Библиотека кодирования : VirtualDubMod build 2540/release
Видео
Идентификатор : 0
Формат : MPEG-4 Visual
Профиль формата : Advanced Simple@L5
Параметр BVOP формата : 1
Параметр QPel формата : Нет
Параметр GMC формата : Без точки перехода
Параметр матрицы формата : Default (MPEG)
Идентификатор кодека : XVID
Идентификатор кодека/Подсказка : XviD
Продолжительность : 1 ч. 25 м.
Битрейт : 1790 Кбит/сек
Ширина : 640 пикселей
Высота : 344 пикселя
Соотношение сторон : 1,860
Частота кадров : 25,000 кадров/сек
Цветовое пространство : YUV
Субдискретизация насыщенности : 4:2:0
Битовая глубина : 8 бит
Тип развёртки : Прогрессивная
Метод сжатия : С потерями
Бит/(Пиксели*Кадры) : 0.325
Размер потока : 1,07 Гбайт (80%)
Библиотека кодирования : XviD 1.2.0.dev47 (UTC 2006-11-01)
Аудио
Идентификатор : 1
Формат : AC-3
Формат/Информация : Audio Coding 3
Расширение режима : CM (complete main)
Идентификатор кодека : 2000
Продолжительность : 1 ч. 25 м.
Вид битрейта : Постоянный
Битрейт : 448 Кбит/сек
Каналы : 6 каналов
Расположение каналов : Front: L C R, Side: L R, LFE
Частота : 48,0 КГц
Битовая глубина : 16 бит
Метод сжатия : С потерями
Размер потока : 273 Мбайт (20%)
Выравнивание : Разделение по промежуткам
Продолжительность промежутка : 40 мс. (1,00 видеокадр)
Время предзагрузки промежутка : 500 мс.
Скриншоты:
Время раздачи:Круглосуточно до 10 скачавших
[Профиль] [ЛС]

Создавать темы 06-Авг-2015 22:44 (спустя 5 месяцев 19 дней)

Топик был перенесен из форума Фильмы до 2014 года в форум Фильмы до 2012 года
sergej644
 
Кто просматривает тему:

Показать сообщения:    

Текущее время: Сегодня 02:45

Часовой пояс: GMT



Вы не можете начинать темы
Вы не можете отвечать на сообщения
Вы не можете редактировать свои сообщения
Вы не можете удалять свои сообщения
Вы не можете голосовать в опросах
Вы не можете прикреплять файлы к сообщениям
Вы не можете скачивать файлы