Африканец / L'Africain (1983) BDRip 720p от MediaClub | D, P

 
Автор Сообщение

sergej644 ®

Пол:

Стаж: 4 года 11 месяцев

Сообщений: 6046

Откуда: Soviet Union



Награды: Нет

Торрент-статистика

Создавать темы 11-Фев-2015 12:32

[Цитировать]

Информация о фильме
Название: Африканец
Оригинальное название: L'Africain
Год выпуска: 1983
Жанр: Приключения, комедия
Режиссер: Филипп Де Брока
В ролях: Катрин Денёв, Филипп Нуаре, Жак Франсуа, Жан-Фрасуа Бальме
Описание: Замечательный приключенческий фильм с истинно французским юмором, снят в экзотических, живописнейших местах Африки, куда прилетает героиня фильма , чтобы изучить возможность строительства отеля для туристов. Там она встречает своего мужа , летчика, охраняющего заповедник от браконьеров. Они расстались несколько лет назад, но так и не смогли забыть друг друга. Он делает все возможное, чтобы воспрепятствовать уничтожению этого нетронутого уголка природы. Нешуточное столкновение интересов, забавные приключения и настоящая опасность возрождают старую любовь с новой силой!

Выпущено: Франция / Renn Productions
Продолжительность: 01:40:50
Перевод: Дублированный, профессиональный многоголосый
Файл
Качество: BDRip 720p
Видео: MPEG-4 AVC, 9000 Кбит/с, 1280x546, 23.976 кадр/с
Аудио #1: Русский (AC3, 6 ch, 384 Кбит/с) / Дублированный
Аудио #2: Русский (AC3, 6 ch, 384 Кбит/с) / Профессиональный многоголосый (R5)
Аудио #3: Украинский (AC3, 2 ch, 192 Кбит/с) / Профессиональный многоголосый (1+1)
Аудио #4: Французский (AC3, 6 ch, 384 Кбит/с)
Субтитры: Русские, английские
Семпл

Скриншоты

MI

x264 [info]: frame I:854 Avg QP:17.24 size:178374
x264 [info]: frame P:32106 Avg QP:19.94 size: 83485
x264 [info]: frame B:112095 Avg QP:21.69 size: 35425
x264 [info]: consecutive B-frames: 1.8% 3.7% 5.3% 28.6% 17.2% 29.6% 5.6% 5.6% 0.8% 1.2% 0.2% 0.2% 0.2%
**************************************************************************************************************************************
Общее
Уникальный идентификатор : 175921748885371529649318603851051872502 (0x84594BE12E318915BF52E6237628B0F6)
Полное имя : D:Mои раздачиAfrikanec.1983.BDRip.720p-MediaClub.mkv
Формат : Matroska
Версия формата : Version 4 / Version 2
Размер файла : 7,28 Гбайт
Продолжительность : 1 ч. 40 м.
Общий поток : 10,3 Мбит/сек
Название фильма : -=MediaClub-kaspr=-
Дата кодирования : UTC 2014-10-30 05:52:41
Программа кодирования : mkvmerge v6.9.1 ('Blue Panther') 64bit built on Apr 18 2014 18:23:38
Библиотека кодирования : libebml v1.3.0 + libmatroska v1.4.1
Видео
Идентификатор : 1
Формат : AVC
Формат/Информация : Advanced Video Codec
Профиль формата : High@L4.1
Параметр CABAC формата : Да
Параметр ReFrames формата : 9 кадров
Идентификатор кодека : V_MPEG4/ISO/AVC
Продолжительность : 1 ч. 40 м.
Битрейт : 9000 Кбит/сек
Ширина : 1280 пикселей
Высота : 546 пикселей
Соотношение сторон : 2,35:1
Режим частоты кадров : Постоянный
Частота кадров : 23,976 кадра/сек
Цветовое пространство : YUV
Субдискретизация насыщенности : 4:2:0
Битовая глубина : 8 бит
Тип развёртки : Прогрессивная
Бит/(Пиксели*Кадры) : 0.537
Размер потока : 6,19 Гбайт (85%)
Заголовок : -=MediaClub-kaspr=-
Библиотека кодирования : x264 core 142 r2431+42 c69a006 tMod [8-bit@4:2:0 X86_64]
Настройки программы : cabac=1 / ref=9 / deblock=1:-3:-3 / analyse=0x3:0x113 / me=umh / subme=11 / psy=1 / fade_compensate=0.00 / psy_rd=1.00:0.00 / mixed_ref=1 / me_range=32 / chroma_me=1 / trellis=2 / 8x8dct=1 / cqm=0 / deadzone=21,11 / fast_pskip=0 / chroma_qp_offset=-2 / threads=12 / lookahead_threads=3 / sliced_threads=0 / nr=0 / decimate=0 / interlaced=0 / bluray_compat=0 / constrained_intra=0 / fgo=0 / bframes=12 / b_pyramid=2 / b_adapt=2 / b_bias=0 / direct=3 / weightb=1 / open_gop=0 / weightp=2 / keyint=240 / keyint_min=23 / scenecut=40 / intra_refresh=0 / rc=2pass / mbtree=0 / bitrate=9000 / ratetol=1.0 / qcomp=0.60 / qpmin=0:0:0 / qpmax=69:69:69 / qpstep=4 / cplxblur=20.0 / qblur=0.5 / ip_ratio=1.40 / pb_ratio=1.30 / aq=4:0.80 / aq-sensitivity=10.00 / aq-factor=1.00:1.00:1.00 / aq2=0 / aq3=0
Default : Да
Forced : Нет
Аудио #1
Идентификатор : 2
Формат : AC-3
Формат/Информация : Audio Coding 3
Расширение режима : CM (complete main)
Параметр Endianness формата : Big
Идентификатор кодека : A_AC3
Продолжительность : 1 ч. 40 м.
Вид битрейта : Постоянный
Битрейт : 384 Кбит/сек
Каналы : 6 каналов
Расположение каналов : Front: L C R, Side: L R, LFE
Частота : 48,0 КГц
Битовая глубина : 16 бит
Метод сжатия : С потерями
Размер потока : 277 Мбайт (4%)
Заголовок : Dub
Язык : Russian
Default : Да
Forced : Нет
Аудио #2
Идентификатор : 3
Формат : AC-3
Формат/Информация : Audio Coding 3
Расширение режима : CM (complete main)
Параметр Endianness формата : Big
Идентификатор кодека : A_AC3
Продолжительность : 1 ч. 40 м.
Вид битрейта : Постоянный
Битрейт : 384 Кбит/сек
Каналы : 6 каналов
Расположение каналов : Front: L C R, Side: L R, LFE
Частота : 48,0 КГц
Битовая глубина : 16 бит
Метод сжатия : С потерями
Размер потока : 277 Мбайт (4%)
Заголовок : MVO (R5)
Язык : Russian
Default : Нет
Forced : Нет
Аудио #3
Идентификатор : 4
Формат : AC-3
Формат/Информация : Audio Coding 3
Расширение режима : CM (complete main)
Параметр Endianness формата : Big
Идентификатор кодека : A_AC3
Продолжительность : 1 ч. 40 м.
Вид битрейта : Постоянный
Битрейт : 192 Кбит/сек
Каналы : 2 канала
Расположение каналов : Front: L R
Частота : 48,0 КГц
Битовая глубина : 16 бит
Метод сжатия : С потерями
Размер потока : 138 Мбайт (2%)
Заголовок : MVO (1+1)
Язык : Ukrainian
Default : Нет
Forced : Нет
Аудио #4
Идентификатор : 5
Формат : AC-3
Формат/Информация : Audio Coding 3
Расширение режима : CM (complete main)
Параметр Endianness формата : Big
Идентификатор кодека : A_AC3
Продолжительность : 1 ч. 40 м.
Вид битрейта : Постоянный
Битрейт : 384 Кбит/сек
Каналы : 6 каналов
Расположение каналов : Front: L C R, Side: L R, LFE
Частота : 48,0 КГц
Битовая глубина : 16 бит
Метод сжатия : С потерями
Размер потока : 277 Мбайт (4%)
Заголовок : Original
Язык : French
Default : Нет
Forced : Нет
Текст #1
Идентификатор : 6
Формат : UTF-8
Идентификатор кодека : S_TEXT/UTF8
Идентификатор кодека/Информация : UTF-8 Plain Text
Язык : Russian
Default : Нет
Forced : Нет
Текст #2
Идентификатор : 7
Формат : UTF-8
Идентификатор кодека : S_TEXT/UTF8
Идентификатор кодека/Информация : UTF-8 Plain Text
Язык : English
Default : Нет
Forced : Нет
Меню
00:00:00.000 : en:Chapter 01
00:06:52.452 : en:Chapter 02
00:11:59.509 : en:Chapter 03
00:15:36.225 : en:Chapter 04
00:21:45.804 : en:Chapter 05
00:27:08.335 : en:Chapter 06
00:37:22.404 : en:Chapter 07
00:46:47.304 : en:Chapter 08
00:56:02.399 : en:Chapter 09
01:03:54.329 : en:Chapter 10
01:12:19.376 : en:Chapter 11
01:16:59.530 : en:Chapter 12
01:20:51.805 : en:Chapter 13
01:28:13.121 : en:Chapter 14
01:35:23.926 : en:Chapter 15
01:38:57.014 : en:Chapter 16
[Профиль] [ЛС]
Кто просматривает тему:

Форум Тема Автор Размер
History History: Звезды ломбарда Южная Африка / Pawn Stars SA [2014, Познавательный, HDTVRip 1080p] TorrentFilm 5.93 GB
Nat Geo Wild Nat Geo Wild: Дикий Запад Африки. Жеребцы пустыни Намиб / Africa's Wild West. Stallions of the Namib Desert (Franz Leopold Schmelzer) [2014 г., Документальный, природа, флора, фауна, HDTVRip... skorpionN 1.59 GB
Разное PLAYBOY №3-4 (Март-Апрель 2016) Южная Африка (2016) PDF достали все 47 MB
Фильмы 2011 года Африка - Рай / Africa paradis (Сильвестр Амуссу / Sylvestre Amoussou) [2006, Бенин, Франция, драма, антиутопия, DVDRip] Sub Rus + Original Fre TorrentFilm 697 MB
Отечественные мультфильмы Африканская сказка (Леонид Аристов, Игорь Николаев) [1963, рисованный мультфильм, SATRip] TorrentFilm 257 MB
Фильмы (HD Rips | 720p, 1080p) Нигде в Африке / Nowhere in Africa / Nirgendwo in Afrika (Каролина Линк / Caroline Link) [2001, Германия, драма, биография, BDRip 720p] MVO (ЕА) + Sub (Rus, Ger, Eng) + Original Ger reversefile 7.34 GB
Отечественные мультфильмы Подарок из Африки (Арнольд Буров) [1975, кукольная анимация, TeleSynch] painkiller 680 MB
Показать сообщения:    

Текущее время: Сегодня 00:38

Часовой пояс: GMT



Вы не можете начинать темы
Вы не можете отвечать на сообщения
Вы не можете редактировать свои сообщения
Вы не можете удалять свои сообщения
Вы не можете голосовать в опросах
Вы не можете прикреплять файлы к сообщениям
Вы не можете скачивать файлы