Афоня (1975) BDRemux [1080p]

 
Автор Сообщение

sergej644 ®

Пол:

Стаж: 4 года 11 месяцев

Сообщений: 6039

Откуда: Soviet Union



Награды: Нет

Торрент-статистика

Создавать темы 24-Июл-2014 20:05

[Цитировать]

-Афоня (1975) BDRemux
«Плохой хороший человек»
- Год выпуска: 1975
Производство: СССР / Мосфильм
Жанр: Драма, Мелодрама, Комедия
Перевод: Не требуется (Русский язык)
Субтитры: Отсутствуют
Режиссер: Георгий Данелия
Актеры: Леонид Куравлёв, Евгения Симонова, Евгений Леонов, Борислав Брондуков, Валентина Талызина, Владимир Басов, Николай Парфёнов, Готлиб Ронинсон, Нина Русланова, Раиса Куркина
Описание фильма:
Весело и беззаботно жил слесарь-сантехник Афанасий. Не гнушался левыми заработками, любил выпить, поволочиться за девушками. Так проходил день за днем, но однажды… О том, что случилось с Афоней, рассказывает фильм признанного мастера комедии Георгия Данелии.

Дата мировой премьеры: 13 октября 1975
Дата выхода DVD релиза: 11 января 2011, «Парадиз Медиа»
Дата выхода Blu-Ray релиза: 29 октября 2013, «Lizard Cinema Trade»
Возраст: 12+
Продолжительность: 01:31:57
Качество видео: BDRemux
Видео: MPEG-4 AVC Video, 1920x1080, ~19473 kbps, 23.976 fps
Аудио 1: DTS-HD MA 5.1, 3740 kbps, 48 kHz [Русский]
Аудио 2: AC3 5.1, 448 kbps, 48 kHz [Русский]

Отчёт MediaInfo

Полное имя : D:\Афоня.(1975).BDRemux.[1080p].mkv
Формат : Matroska
Версия формата : Version 2
Размер файла : 15,2 Гбайт
Продолжительность : 1 ч. 31 м.
Режим общего битрейта : Переменный
Общий поток : 23,7 Мбит/сек
Название фильма : Афоня (1975) / Lelya_K for NNM-Club
Дата кодирования : UTC 2013-12-10 17:59:13
Программа кодирования : mkvmerge v5.7.0 ('The Whirlwind') built on Aug 7 2012 14:11:40
Библиотека кодирования : libebml v1.2.3 + libmatroska v1.3.0
Видео
Идентификатор : 1
Формат : AVC
Формат/Информация : Advanced Video Codec
Профиль формата : [url=mailto:High@L4.1]High@L4.1[/url]
Параметр CABAC формата : Да
Параметр ReFrames формата : 4 кадра
Идентификатор кодека : V_MPEG4/ISO/AVC
Продолжительность : 1 ч. 31 м.
Вид битрейта : Переменный
Битрейт : 21,2 Мбит/сек
Максимальный битрейт : 25,0 Мбит/сек
Ширина : 1920 пикселей
Высота : 1080 пикселей
Соотношение сторон : 16:9
Режим частоты кадров : Постоянный
Частота кадров : 23,976 кадра/сек
Стандарт вещания : NTSC
Цветовое пространство : YUV
Субдискретизация насыщенности : 4:2:0
Битовая глубина : 8 бит
Тип развёртки : Прогрессивная
Бит/(Пиксели*Кадры) : 0.426
Размер потока : 13,6 Гбайт (90%)
Заголовок : Афоня.(1975).BDRemux.[1080p]
Язык : Russian
Default : Да
Forced : Нет
Основные цвета : BT.709
Характеристики трансфера : BT.709
Коэффициенты матрицы : BT.709
Аудио #1
Идентификатор : 2
Формат : DTS
Формат/Информация : Digital Theater Systems
Профиль формата : MA / Core
Идентификатор кодека : A_DTS
Продолжительность : 1 ч. 31 м.
Вид битрейта : Переменный
Битрейт : 1561 Кбит/сек / 1510 Кбит/сек
Каналы : 6 каналов
Расположение каналов : Front: L C R, Side: L R, LFE
Частота : 48,0 КГц
Битовая глубина : 24 бит
Метод сжатия : Без потерь / Lossy
Заголовок : DTS-HD MA 5.1 / 3740 kbps
Язык : Russian
Default : Да
Forced : Нет
Аудио #2
Идентификатор : 3
Формат : AC-3
Формат/Информация : Audio Coding 3
Расширение режима : CM (complete main)
Параметр Endianness формата : Big
Идентификатор кодека : A_AC3
Продолжительность : 1 ч. 31 м.
Вид битрейта : Постоянный
Битрейт : 448 Кбит/сек
Каналы : 6 каналов
Расположение каналов : Front: L C R, Side: L R, LFE
Частота : 48,0 КГц
Битовая глубина : 16 бит
Метод сжатия : С потерями
Размер потока : 295 Мбайт (2%)
Заголовок : AC3 5.1 / 448 kbps
Язык : Russian
Default : Нет
Forced : Нет
Меню
00:00:00.000 : ru:Chapter 1
00:07:11.431 : ru:Chapter 2
00:11:12.672 : ru:Chapter 3
00:19:32.171 : ru:Chapter 4
00:24:03.066 : ru:Chapter 5
00:31:43.902 : ru:Chapter 6
00:42:34.552 : ru:Chapter 7
00:51:58.615 : ru:Chapter 8
01:00:26.622 : ru:Chapter 9
01:09:38.174 : ru:Chapter 10
01:15:31.610 : ru:Chapter 11
01:23:30.130 : ru:Chapter 12

Дополнительно

Полная реставрация изображения и звука. Исходные киноматериалы подготовлены Госфильмофондом России. Покадровая цифровая реставрация изображения, ремастеринг звука и авторинг проведены объединением «Крупный план».
Скриншоты:

--
[Профиль] [ЛС]
Показать сообщения:    

Текущее время: Сегодня 16:36

Часовой пояс: GMT



Вы не можете начинать темы
Вы не можете отвечать на сообщения
Вы не можете редактировать свои сообщения
Вы не можете удалять свои сообщения
Вы не можете голосовать в опросах
Вы не можете прикреплять файлы к сообщениям
Вы не можете скачивать файлы