Афера / The Sting (1973) BDRip 1080p

 
Автор Сообщение

sergej644 ®

Пол:

Стаж: 4 года 11 месяцев

Сообщений: 6046

Откуда: Soviet Union



Награды: Нет

Торрент-статистика

Создавать темы 05-Дек-2014 15:31

[Цитировать]

Информация о фильме
Название: Афера
Оригинальное название: The Sting
Год выхода: 1973
Жанр: Комедия, драма, криминал
Режиссер: Джордж Рой Хилл
В ролях: Пол Ньюман, Роберт Редфорд, Роберт Шоу, Чарльз Дёрнинг, Рей Уолстон, Айлин Бреннан, Харольд Гулд, Джон Хеффернан, Дэна Элкар, Джек Кихоу, Димитра Арлисс, Роберт Эрл Джонс, Джеймс Слойан, Чарльз Диркоп, Ли Пол, Сэлли Кёркленд, Эвон Лонг, Арч Джонсон, Эд Бэйки, Брэд Салливан, Джон Квэйд, Ларри Д. Манн, Леонард Барр, Полин Майерс, Джо Торнаторе, Джек Коллинз, Том Спрэтли, Кеннет О’Брайэн, Кен Сэнсом, Та-Таниша, Уильям 'Билли' Бенедикт, Патриция Брэтчер, Роберт Брубэйкер, Сьюзэн Френч, Брюс Кимболл, Александр Локвуд, Чак Морелл, Байрон Морроу, Перл Шир, Артур Тови, Гай Вэй
О фильме:
В 1930-е годы двое отпетых мошенников пытаются отомстить главарю мафии за смерть их общего друга с помощью одной из самых неожиданных афер в истории кино, которая к тому же заканчивается удивительным и забавным образом.

Страна: США
Студия: Zanuck / Brown Productions, Universal Pictures
Продолжительность: 02:09:17
Перевод: Профессиональный многоголосый, Дублированный, Авторский
Файл
Кодек: h.264
Качество: BDRip 1080p
Видео: MPEG-4, 1920x1040, 9 003 Мбит/с, 23.976 кадр/с
Звук:
Аудио #1: Русский ( AC3, 2ch, 448 Кбит/с, 48.0 KHz) Профессиональный многоголосый (Позитив-Мультимедиа)
Аудио #2: Русский ( AC3, 2ch, 192 Кбит/с, 48.0 KHz) Дублированный
Аудио #3: Русский ( AC3, 2ch, 192 Кбит/с, 48.0 KHz) Авторский (Алексей Михалев)
Аудио #4: Английский ( AC3, 6ch, 448 Кбит/с, 48.0 KHz) Оригинал

MediaInfo

Complete name : The.Sting.1973.BDRip.1080p.mkv
Format : Matroska
Format version : Version 4 / Version 2
File size : 9.29 GiB
Duration : 2h 9mn
Overall bit rate : 10.3 Mbps
Encoded date : UTC 2014-12-01 12:48:41
Writing application : mkvmerge v6.9.1 ('Blue Panther') 64bit built on Apr 18 2014 18:23:38
Writing library : libebml v1.3.0 + libmatroska v1.4.1
Video
ID : 1
Format : AVC
Format/Info : Advanced Video Codec
Format profile : High@L4.1
Format settings, CABAC : Yes
Format settings, ReFrames : 4 frames
Codec ID : V_MPEG4/ISO/AVC
Bit rate : 9 003 Kbps
Width : 1 920 pixels
Height : 1 040 pixels
Display aspect ratio : 1.85:1
Frame rate mode : Variable
Original frame rate : 23.976 fps
Color space : YUV
Chroma subsampling : 4:2:0
Bit depth : 8 bits
Scan type : Progressive
Bits/(Pixel*Frame) : 0.188
Title : Video
Writing library : x264 core 125 r2200 999b753
Encoding settings : cabac=1 / ref=4 / deblock=1:-1:-1 / analyse=0x3:0x113 / me=umh / subme=8 / psy=1 / psy_rd=1.00:0.15 / mixed_ref=1 / me_range=16 / chroma_me=1 / trellis=1 / 8x8dct=1 / cqm=0 / deadzone=21,11 / fast_pskip=1 / chroma_qp_offset=-3 / threads=6 / lookahead_threads=1 / sliced_threads=0 / nr=0 / decimate=1 / interlaced=0 / bluray_compat=0 / constrained_intra=0 / bframes=3 / b_pyramid=2 / b_adapt=2 / b_bias=0 / direct=3 / weightb=1 / open_gop=0 / weightp=2 / keyint=250 / keyint_min=23 / scenecut=40 / intra_refresh=0 / rc_lookahead=50 / rc=2pass / mbtree=1 / bitrate=9003 / ratetol=1.0 / qcomp=0.60 / qpmin=0 / qpmax=69 / qpstep=4 / cplxblur=20.0 / qblur=0.5 / ip_ratio=1.40 / aq=1:1.00
Language : English
Default : Yes
Forced : No
Audio #1
ID : 2
Format : AC-3
Format/Info : Audio Coding 3
Mode extension : CM (complete main)
Format settings, Endianness : Big
Codec ID : A_AC3
Duration : 2h 9mn
Bit rate mode : Constant
Bit rate : 448 Kbps
Channel(s) : 2 channels
Channel positions : Front: L R
Sampling rate : 48.0 KHz
Bit depth : 16 bits
Compression mode : Lossy
Stream size : 414 MiB (4%)
Title : Audio 1
Language : Russian
Default : Yes
Forced : No
Audio #2
ID : 3
Format : AC-3
Format/Info : Audio Coding 3
Mode extension : CM (complete main)
Format settings, Endianness : Big
Codec ID : A_AC3
Duration : 2h 9mn
Bit rate mode : Constant
Bit rate : 192 Kbps
Channel(s) : 2 channels
Channel positions : Front: L R
Sampling rate : 48.0 KHz
Bit depth : 16 bits
Compression mode : Lossy
Stream size : 178 MiB (2%)
Title : Audio 2
Language : Russian
Default : No
Forced : No
Audio #3
ID : 4
Format : AC-3
Format/Info : Audio Coding 3
Mode extension : CM (complete main)
Format settings, Endianness : Big
Codec ID : A_AC3
Duration : 2h 9mn
Bit rate mode : Constant
Bit rate : 192 Kbps
Channel(s) : 2 channels
Channel positions : Front: L R
Sampling rate : 48.0 KHz
Bit depth : 16 bits
Compression mode : Lossy
Stream size : 178 MiB (2%)
Title : Audio 3
Language : Russian
Default : No
Forced : No
Audio #4
ID : 5
Format : AC-3
Format/Info : Audio Coding 3
Mode extension : CM (complete main)
Format settings, Endianness : Big
Codec ID : A_AC3
Duration : 2h 9mn
Bit rate mode : Constant
Bit rate : 448 Kbps
Channel(s) : 6 channels
Channel positions : Front: L C R, Side: L R, LFE
Sampling rate : 48.0 KHz
Bit depth : 16 bits
Compression mode : Lossy
Stream size : 414 MiB (4%)
Title : Audio 4
Language : English
Default : No
Forced : No

Скриншоты

[Профиль] [ЛС]
Кто просматривает тему:

Форум Тема Автор Размер
Фильмы (DVD 5/9) Афера (Евгений Лаврентьев) [2001, Россия, криминал, DVD5 (Сжатый)] TorrentFilm 4.36 GB
Фильмы 2011 года Афера / Confidence (2003) DVDRip | D sergej644 744 MB
Фильмы (HD Rips | 720p, 1080p) Афера / The Sting (Джордж Рой Хилл / George Roy Hill) [1973, драма, комедия, криминал, BDRip, 720p] Dub + MVO + AVO + Original (Eng) + Subs (Rus, Eng) sergej644 7.78 GB
Фильмы (HD Rips | 720p, 1080p) Афера по-американски / American Hustle (Дэвид О. Расселл / David O. Russell) [2013, США, драма, комедия, криминал, BDRemux 1080p] [NOR] Dub + AVO (Гаврилов) + VO (Doctor Joker) + Original eng + Sub... bot 45.49 GB
Фильмы (HD Rips | 720p, 1080p) Афера по-американски / American Hustle (Дэвид О. Расселл / David O. Russell) [2013, США, драма, комедия, криминал, BDRip 1080p] [NOR] Dub + AVO (Гаврилов) + VO (Doctor Joker) + Original eng + Sub... bot 28.94 GB
Фильмы (HD Rips | 720p, 1080p) Афера по-американски / American Hustle (Дэвид О. Расселл / David O. Russell) [2013, США, драма, комедия, криминал, BDRip 720p] [NOR] Dub + AVO (Гаврилов) + VO (Doctor Joker) + Original eng + Sub rus,... bot 14.06 GB
Фильмы (HD DVD, Blu-ray и BDRemux) Афера под прикрытием / The Infiltrator (2016) BDRemux 1080p от ExKinoRay | A Russian Mafia 34.6 GB
Фильмы (HD Rips | 720p, 1080p) Афера под прикрытием / The Infiltrator (2016) BDRip 1080p | iTunes достали все 11.98 GB
Показать сообщения:    

Текущее время: Сегодня 23:29

Часовой пояс: GMT



Вы не можете начинать темы
Вы не можете отвечать на сообщения
Вы не можете редактировать свои сообщения
Вы не можете удалять свои сообщения
Вы не можете голосовать в опросах
Вы не можете прикреплять файлы к сообщениям
Вы не можете скачивать файлы