Афера по-американски / American Hustle (Дэвид О. Расселл / David O. Russell) [2013, США, драма, комедия, криминал, BDRip 720p] [NOR] Dub + AVO (Гаврилов) + VO (Doctor Joker) + Original eng + Sub rus, eng

 
Автор Сообщение

Создавать темы 19-Июл-2014 15:16

Афера по-американски / American Hustle
Страна: США
Жанр: драма, комедия, криминал
Год выпуска: 2013
Продолжительность: 02:17:54
Перевод#1: Профессиональный (дублированный) | BD RUS
Перевод#2: Авторский (одноголосый закадровый), А. Гаврилов
Перевод#3: Одноголосый закадровый, А. Матвеев aka Doctor_Joker, без цензуры
Cубтитры: русские (BD, Doctor_Joker), английские
Оригинальная аудиодорожка: английский
Режиссер: Дэвид О. Расселл / David O. Russell
В ролях: Кристиан Бэйл, Эми Адамс, Брэдли Купер, Дженнифер Лоуренс, Джереми Реннер, Луис С.К., Алессандро Нивола, Джек Хьюстон, Роберт Де Ниро, Майкл Пенья
Описание: В основе сюжета фильма реальная спецоперация, проводимая в конце 70-х — начале 80-х ФБР под кодовым названием Abscam. Она изначально была нацелена на расследование торговли краденым товаром. ФБР собиралось внедрить в преступную среду своих агентов под видом посредников, скупающих краденые шедевры для богатых коллекционеров Ближнего Востока. Впоследствии операция превратилась в изобличение коррупции на разных уровнях...

Исходник: American Hustle 2013 1080p NOR Blu-ray AVC DTS-HD MA 5.1
Тип релиза: BDRip 720p (AraGorN@LolHD) | sample
Контейнер: MKV
Видео кодек: x264
Видео: AVC 1280x534 (2.40:1), 23.976 fps, 12032 Kbps, 0.72 bit/pixel
Аудио #1: Russian AC3 6ch 48kHz 640Kbps | Dub BD
Аудио #2: Russian AC3 6ch 48kHz 640Kbps | AVO Гаврилов
Аудио #3: Russian AC3 6ch 48kHz 640Kbps | VO Матвеев
Аудио #4: English AC3 6ch 48kHz 640Kbps | Original
Формат субтитров: softsub (SRT)
Главы: есть

ДополнительноСделано с норвежского исходника, сравнение со штатовским здесь
Глитч на #108805 на энкоде (и в динамике) практически не заметен, пропера не будет
Дубляж с BLUEBiRD, авторские - с HDCLUB, всем спасибо
За Гаврилова благодарим пользователей e180 и Bloodymetall, за Матвеева - будулайроманов и Переводман
Матвеев без цензуры совсем, берегите мозг

x264

x264 [info]: frame I:1243 Avg QP:16.00 size:123089
x264 [info]: frame P:39953 Avg QP:17.05 size: 87748
x264 [info]: frame B:157197 Avg QP:18.11 size: 55898
x264 [info]: consecutive B-frames: 1.1% 2.4% 7.4% 14.2% 17.2% 43.4% 6.6% 1.6% 2.1% 2.2% 1.9%
x264 [info]: SSIM Mean Y:0.9771349 (16.408db)!encoded 198393 frames, 3.28 fps, 12032.78 kb/s

MediaInfo

General
Complete name : D:\...\American.Hustle.2013.NOR.720p.BluRay.DD5.1.x264.3xRus.Eng-LolHD.mkv
Format : Matroska
Format version : Version 2
File size : 14.1 GiB
Duration : 2h 18mn
Overall bit rate : 14.6 Mbps
Movie name : American.Hustle.2013.NOR.720p.BluRay.DD5.1.x264.3xRus.Eng-LolHD
Encoded date : UTC 2014-06-22 04:36:16
Writing application : mkvmerge v6.5.0 ('Isn't she lovely') built on Oct 20 2013 12:50:05
Writing library : libebml v1.3.0 + libmatroska v1.4.1
Video
ID : 1
Format : AVC
Format/Info : Advanced Video Codec
Format profile : High@L4.1
Format settings, CABAC : Yes
Format settings, ReFrames : 12 frames
Codec ID : V_MPEG4/ISO/AVC
Duration : 2h 18mn
Bit rate : 11.7 Mbps
Width : 1 280 pixels
Height : 534 pixels
Display aspect ratio : 2.40:1
Frame rate mode : Constant
Frame rate : 23.976 fps
Color space : YUV
Chroma subsampling : 4:2:0
Bit depth : 8 bits
Scan type : Progressive
Bits/(Pixel*Frame) : 0.716
Stream size : 11.3 GiB (80%)
Title : American Hustle (2013)
Writing library : x264 core 142 r2431kMod ac76440
Encoding settings : cabac=1 / ref=12 / deblock=1:-3:-3 / analyse=0x3:0x133 / me=umh / subme=10 / psy=1 / fade_compensate=0.00 / psy_rd=1.10:0.00 / mixed_ref=1 / me_range=24 / chroma_me=1 / trellis=2 / 8x8dct=1 / cqm=0 / deadzone=21,11 / fast_pskip=0 / chroma_qp_offset=-2 / threads=24 / lookahead_threads=4 / sliced_threads=0 / nr=0 / decimate=0 / interlaced=0 / bluray_compat=0 / constrained_intra=0 / fgo=0 / bframes=10 / b_pyramid=2 / b_adapt=2 / b_bias=0 / direct=3 / weightb=1 / open_gop=0 / weightp=2 / keyint=250 / keyint_min=23 / scenecut=40 / intra_refresh=0 / rc=crf / mbtree=0 / crf=16.0000 / qcomp=0.60 / qpmin=0 / qpmax=69 / qpstep=4 / ip_ratio=1.20 / pb_ratio=1.20 / aq=3:0.65 / zones=189211,198393,crf=20
Language : English
Default : Yes
Forced : No
Audio #1
ID : 2
Format : AC-3
Format/Info : Audio Coding 3
Mode extension : CM (complete main)
Format settings, Endianness : Big
Codec ID : A_AC3
Duration : 2h 18mn
Bit rate mode : Constant
Bit rate : 640 Kbps
Channel(s) : 6 channels
Channel positions : Front: L C R, Side: L R, LFE
Sampling rate : 48.0 KHz
Bit depth : 16 bits
Compression mode : Lossy
Stream size : 632 MiB (4%)
Title : Dub BD RUS
Language : Russian
Default : Yes
Forced : No
Audio #2
ID : 3
Format : AC-3
Format/Info : Audio Coding 3
Mode extension : CM (complete main)
Format settings, Endianness : Big
Codec ID : A_AC3
Duration : 2h 18mn
Bit rate mode : Constant
Bit rate : 640 Kbps
Channel(s) : 6 channels
Channel positions : Front: L C R, Side: L R, LFE
Sampling rate : 48.0 KHz
Bit depth : 16 bits
Compression mode : Lossy
Stream size : 632 MiB (4%)
Title : AVO Gavrilov
Language : Russian
Default : No
Forced : No
Audio #3
ID : 4
Format : AC-3
Format/Info : Audio Coding 3
Mode extension : CM (complete main)
Format settings, Endianness : Big
Codec ID : A_AC3
Duration : 2h 18mn
Bit rate mode : Constant
Bit rate : 640 Kbps
Channel(s) : 6 channels
Channel positions : Front: L C R, Side: L R, LFE
Sampling rate : 48.0 KHz
Bit depth : 16 bits
Compression mode : Lossy
Stream size : 632 MiB (4%)
Title : AVO Doctor_Joker
Language : Russian
Default : No
Forced : No
Audio #4
ID : 5
Format : AC-3
Format/Info : Audio Coding 3
Mode extension : CM (complete main)
Format settings, Endianness : Big
Codec ID : A_AC3
Duration : 2h 18mn
Bit rate mode : Constant
Bit rate : 640 Kbps
Channel(s) : 6 channels
Channel positions : Front: L C R, Side: L R, LFE
Sampling rate : 48.0 KHz
Bit depth : 16 bits
Compression mode : Lossy
Stream size : 632 MiB (4%)
Title : Original
Language : English
Default : No
Forced : No
Text #1
ID : 6
Format : UTF-8
Codec ID : S_TEXT/UTF8
Codec ID/Info : UTF-8 Plain Text
Title : BD RUS
Language : Russian
Default : No
Forced : No
Text #2
ID : 7
Format : UTF-8
Codec ID : S_TEXT/UTF8
Codec ID/Info : UTF-8 Plain Text
Title : Doctor_Joker
Language : Russian
Default : No
Forced : No
Text #3
ID : 8
Format : UTF-8
Codec ID : S_TEXT/UTF8
Codec ID/Info : UTF-8 Plain Text
Title : Forced
Language : English
Default : No
Forced : No
Text #4
ID : 9
Format : UTF-8
Codec ID : S_TEXT/UTF8
Codec ID/Info : UTF-8 Plain Text
Language : English
Default : No
Forced : No
Text #5
ID : 10
Format : UTF-8
Codec ID : S_TEXT/UTF8
Codec ID/Info : UTF-8 Plain Text
Title : SDH
Language : English
Default : No
Forced : No
Menu
00:00:00.000 : en:Chapter 1
00:07:29.741 : en:Chapter 2
00:14:09.432 : en:Chapter 3
00:24:11.533 : en:Chapter 4
00:31:29.513 : en:Chapter 5
00:44:06.769 : en:Chapter 6
00:52:06.999 : en:Chapter 7
01:00:17.197 : en:Chapter 8
01:06:16.848 : en:Chapter 9
01:16:52.775 : en:Chapter 10
01:22:25.524 : en:Chapter 11
01:27:56.563 : en:Chapter 12
01:36:43.798 : en:Chapter 13
01:44:25.843 : en:Chapter 14
01:54:23.732 : en:Chapter 15
02:11:31.967 : en:Chapter 16

Скриншоты

source vs LolHD NOR vs LolHD US



--
 
Кто просматривает тему:

Форум Тема Автор Размер
Фильмы (DVD 5/9) Афера (Евгений Лаврентьев) [2001, Россия, криминал, DVD5 (Сжатый)] TorrentFilm 4.36 GB
Фильмы 2011 года Афера / Confidence (2003) DVDRip | D sergej644 744 MB
Фильмы (HD Rips | 720p, 1080p) Афера / The Sting (1973) BDRip 1080p sergej644 9.29 GB
Фильмы (HD Rips | 720p, 1080p) Афера / The Sting (Джордж Рой Хилл / George Roy Hill) [1973, драма, комедия, криминал, BDRip, 720p] Dub + MVO + AVO + Original (Eng) + Subs (Rus, Eng) sergej644 7.78 GB
Фильмы (HD Rips | 720p, 1080p) Афера по-американски / American Hustle (Дэвид О. Расселл / David O. Russell) [2013, США, драма, комедия, криминал, BDRemux 1080p] [NOR] Dub + AVO (Гаврилов) + VO (Doctor Joker) + Original eng + Sub... bot 45.49 GB
Фильмы (HD Rips | 720p, 1080p) Афера по-американски / American Hustle (Дэвид О. Расселл / David O. Russell) [2013, США, драма, комедия, криминал, BDRip 1080p] [NOR] Dub + AVO (Гаврилов) + VO (Doctor Joker) + Original eng + Sub... bot 28.94 GB
Фильмы (HD DVD, Blu-ray и BDRemux) Афера под прикрытием / The Infiltrator (2016) BDRemux 1080p от ExKinoRay | A Russian Mafia 34.6 GB
Фильмы (HD Rips | 720p, 1080p) Афера под прикрытием / The Infiltrator (2016) BDRip 1080p | iTunes достали все 11.98 GB
Показать сообщения:    

Текущее время: Сегодня 12:28

Часовой пояс: GMT



Вы не можете начинать темы
Вы не можете отвечать на сообщения
Вы не можете редактировать свои сообщения
Вы не можете удалять свои сообщения
Вы не можете голосовать в опросах
Вы не можете прикреплять файлы к сообщениям
Вы не можете скачивать файлы