Афера по-американски / American Hustle (Дэвид О. Расселл / David O. Russell) [2013, США, драма, комедия, криминал, BDRip 1080p] [NOR] Dub + AVO (Гаврилов) + VO (Doctor Joker) + Original eng + Sub rus, eng

 
Автор Сообщение

Создавать темы 19-Июл-2014 15:16

Афера по-американски / American Hustle
Страна: США
Жанр: драма, комедия, криминал
Год выпуска: 2013
Продолжительность: 02:17:54
Перевод#1: Профессиональный (дублированный) | BD RUS
Перевод#2: Авторский (одноголосый закадровый), А. Гаврилов
Перевод#3: Одноголосый закадровый, А. Матвеев aka Doctor_Joker, без цензуры
Cубтитры: русские (BD, Doctor_Joker), английские
Оригинальная аудиодорожка: английский
Режиссер: Дэвид О. Расселл / David O. Russell
В ролях: Кристиан Бэйл, Эми Адамс, Брэдли Купер, Дженнифер Лоуренс, Джереми Реннер, Луис С.К., Алессандро Нивола, Джек Хьюстон, Роберт Де Ниро, Майкл Пенья
Описание: В основе сюжета фильма реальная спецоперация, проводимая в конце 70-х — начале 80-х ФБР под кодовым названием Abscam. Она изначально была нацелена на расследование торговли краденым товаром. ФБР собиралось внедрить в преступную среду своих агентов под видом посредников, скупающих краденые шедевры для богатых коллекционеров Ближнего Востока. Впоследствии операция превратилась в изобличение коррупции на разных уровнях...

Исходник: American Hustle 2013 1080p NOR Blu-ray AVC DTS-HD MA 5.1
Тип релиза: BDRip 1080p (Lordino@DON) | sample
Контейнер: MKV
Видео кодек: x264
Видео: AVC 1920x800 (2.40:1), 23.976 fps, ~24000 Kbps (66%), 0.65 bit/pixel
Аудио #1: Russian DTS 6ch 48kHz 1510Kbps | Dub BD
Аудио #2: Russian DTS 6ch 48kHz 1510Kbps | AVO Гаврилов
Аудио #3: Russian DTS 6ch 48kHz 1510Kbps | VO Матвеев
Аудио #4: English DTS 6ch 48kHz 1510Kbps | Original
Формат субтитров: softsub (SRT)
Главы: есть

ДополнительноСделано с норвежского исходника
Матвеев без цензуры совсем, берегите мозг

x264

y4m [info]: 1920x800p 1:1 @ 24000/1001 fps (cfr)
x264 [info]: frame I:1114 Avg QP:16.82 size:256114
x264 [info]: frame P:40795 Avg QP:18.81 size:153495
x264 [info]: frame B:156485 Avg QP:19.67 size:116783
x264 [info]: consecutive B-frames: 1.1% 3.6% 6.1% 15.8% 16.1% 42.6% 8.3% 2.6% 3.9%
x264 [info]: kb/s:23998.02

MediaInfo

General
Complete name : D:\...\American.Hustle.2013.NOR.1080p.BluRay.DTS.x264.3xRus.Eng-DON.mkv
Format : Matroska
Format version : Version 2
File size : 28.9 GiB
Duration : 2h 18mn
Overall bit rate : 30.0 Mbps
Movie name : American.Hustle.2013.NOR.1080p.BluRay.DTS.x264.3xRus.Eng-DON
Encoded date : UTC 2014-06-21 04:40:14
Writing application : mkvmerge v6.5.0 ('Isn't she lovely') built on Oct 20 2013 12:50:05
Writing library : libebml v1.3.0 + libmatroska v1.4.1
Video
ID : 1
Format : AVC
Format/Info : Advanced Video Codec
Format profile : High@L4.1
Format settings, CABAC : Yes
Format settings, ReFrames : 5 frames
Codec ID : V_MPEG4/ISO/AVC
Bit rate : 24.0 Mbps
Width : 1 920 pixels
Height : 800 pixels
Display aspect ratio : 2.40:1
Frame rate mode : Variable
Original frame rate : 23.976 fps
Color space : YUV
Chroma subsampling : 4:2:0
Bit depth : 8 bits
Scan type : Progressive
Bits/(Pixel*Frame) : 0.652
Title : American Hustle (2013)
Writing library : x264 core 133 r2334 a3ac64b
Encoding settings : cabac=1 / ref=5 / deblock=1:-3:-3 / analyse=0x3:0x133 / me=umh / subme=10 / psy=1 / psy_rd=1.05:0.00 / mixed_ref=1 / me_range=24 / chroma_me=1 / trellis=2 / 8x8dct=1 / cqm=0 / deadzone=21,11 / fast_pskip=0 / chroma_qp_offset=-2 / threads=12 / lookahead_threads=2 / sliced_threads=0 / nr=0 / decimate=0 / interlaced=0 / bluray_compat=0 / constrained_intra=0 / bframes=8 / b_pyramid=2 / b_adapt=2 / b_bias=0 / direct=3 / weightb=1 / open_gop=0 / weightp=2 / keyint=250 / keyint_min=23 / scenecut=40 / intra_refresh=0 / rc_lookahead=60 / rc=2pass / mbtree=1 / bitrate=24000 / ratetol=1.0 / qcomp=0.75 / qpmin=0 / qpmax=69 / qpstep=4 / cplxblur=20.0 / qblur=0.5 / vbv_maxrate=50000 / vbv_bufsize=62500 / nal_hrd=none / ip_ratio=1.30 / aq=1:0.75
Language : English
Default : Yes
Forced : No
Audio #1
ID : 2
Format : DTS
Format/Info : Digital Theater Systems
Codec ID : A_DTS
Duration : 2h 18mn
Bit rate mode : Constant
Bit rate : 1 510 Kbps
Channel(s) : 6 channels
Channel positions : Front: L C R, Side: L R, LFE
Sampling rate : 48.0 KHz
Bit depth : 16 bits
Compression mode : Lossy
Stream size : 1.46 GiB (5%)
Title : Dub BD RUS
Language : Russian
Default : Yes
Forced : No
Audio #2
ID : 3
Format : DTS
Format/Info : Digital Theater Systems
Codec ID : A_DTS
Duration : 2h 18mn
Bit rate mode : Constant
Bit rate : 1 510 Kbps
Channel(s) : 6 channels
Channel positions : Front: L C R, Side: L R, LFE
Sampling rate : 48.0 KHz
Bit depth : 24 bits
Compression mode : Lossy
Stream size : 1.46 GiB (5%)
Title : AVO Gavrilov
Language : Russian
Default : No
Forced : No
Audio #3
ID : 4
Format : DTS
Format/Info : Digital Theater Systems
Codec ID : A_DTS
Duration : 2h 18mn
Bit rate mode : Constant
Bit rate : 1 510 Kbps
Channel(s) : 6 channels
Channel positions : Front: L C R, Side: L R, LFE
Sampling rate : 48.0 KHz
Bit depth : 24 bits
Compression mode : Lossy
Stream size : 1.46 GiB (5%)
Title : AVO Doctor Joker
Language : Russian
Default : No
Forced : No
Audio #4
ID : 5
Format : DTS
Format/Info : Digital Theater Systems
Codec ID : A_DTS
Duration : 2h 18mn
Bit rate mode : Constant
Bit rate : 1 510 Kbps
Channel(s) : 6 channels
Channel positions : Front: L C R, Side: L R, LFE
Sampling rate : 48.0 KHz
Bit depth : 24 bits
Compression mode : Lossy
Stream size : 1.46 GiB (5%)
Title : Original
Language : English
Default : No
Forced : No
Text #1
ID : 6
Format : UTF-8
Codec ID : S_TEXT/UTF8
Codec ID/Info : UTF-8 Plain Text
Title : BD RUS
Language : Russian
Default : No
Forced : No
Text #2
ID : 7
Format : UTF-8
Codec ID : S_TEXT/UTF8
Codec ID/Info : UTF-8 Plain Text
Title : Doctor Joker
Language : Russian
Default : No
Forced : No
Text #3
ID : 8
Format : UTF-8
Codec ID : S_TEXT/UTF8
Codec ID/Info : UTF-8 Plain Text
Title : Forced
Language : English
Default : No
Forced : No
Text #4
ID : 9
Format : UTF-8
Codec ID : S_TEXT/UTF8
Codec ID/Info : UTF-8 Plain Text
Language : English
Default : No
Forced : No
Text #5
ID : 10
Format : UTF-8
Codec ID : S_TEXT/UTF8
Codec ID/Info : UTF-8 Plain Text
Title : SDH
Language : English
Default : No
Forced : No
Menu
00:00:00.000 : en:Chapter 1
00:07:29.741 : en:Chapter 2
00:14:09.432 : en:Chapter 3
00:24:11.533 : en:Chapter 4
00:31:29.513 : en:Chapter 5
00:44:06.769 : en:Chapter 6
00:52:06.999 : en:Chapter 7
01:00:17.197 : en:Chapter 8
01:06:16.848 : en:Chapter 9
01:16:52.775 : en:Chapter 10
01:22:25.524 : en:Chapter 11
01:27:56.563 : en:Chapter 12
01:36:43.798 : en:Chapter 13
01:44:25.843 : en:Chapter 14
01:54:23.732 : en:Chapter 15
02:11:31.967 : en:Chapter 16

Скриншоты

source vs DON


 
Кто просматривает тему:

Форум Тема Автор Размер
Фильмы (DVD 5/9) Афера (Евгений Лаврентьев) [2001, Россия, криминал, DVD5 (Сжатый)] TorrentFilm 4.36 GB
Фильмы 2011 года Афера / Confidence (2003) DVDRip | D sergej644 744 MB
Фильмы (HD Rips | 720p, 1080p) Афера / The Sting (1973) BDRip 1080p sergej644 9.29 GB
Фильмы (HD Rips | 720p, 1080p) Афера / The Sting (Джордж Рой Хилл / George Roy Hill) [1973, драма, комедия, криминал, BDRip, 720p] Dub + MVO + AVO + Original (Eng) + Subs (Rus, Eng) sergej644 7.78 GB
Фильмы (HD Rips | 720p, 1080p) Афера по-американски / American Hustle (Дэвид О. Расселл / David O. Russell) [2013, США, драма, комедия, криминал, BDRemux 1080p] [NOR] Dub + AVO (Гаврилов) + VO (Doctor Joker) + Original eng + Sub... bot 45.49 GB
Фильмы (HD Rips | 720p, 1080p) Афера по-американски / American Hustle (Дэвид О. Расселл / David O. Russell) [2013, США, драма, комедия, криминал, BDRip 720p] [NOR] Dub + AVO (Гаврилов) + VO (Doctor Joker) + Original eng + Sub rus,... bot 14.06 GB
Фильмы (HD DVD, Blu-ray и BDRemux) Афера под прикрытием / The Infiltrator (2016) BDRemux 1080p от ExKinoRay | A Russian Mafia 34.6 GB
Фильмы (HD Rips | 720p, 1080p) Афера под прикрытием / The Infiltrator (2016) BDRip 1080p | iTunes достали все 11.98 GB
Показать сообщения:    

Текущее время: Сегодня 02:26

Часовой пояс: GMT



Вы не можете начинать темы
Вы не можете отвечать на сообщения
Вы не можете редактировать свои сообщения
Вы не можете удалять свои сообщения
Вы не можете голосовать в опросах
Вы не можете прикреплять файлы к сообщениям
Вы не можете скачивать файлы