Афера под прикрытием / The Infiltrator (2016) BDRemux 1080p от ExKinoRay | A

 
Автор Сообщение

Russian Mafia ®

Пол:

Стаж: 1 год 8 месяцев

Сообщений: 4253



Награды: 10 (Подробнее)

Mega Seeder 3 (Количество: 1) Mega Seeder 4 (Количество: 1) Top Releaser 3 (Количество: 1)
Торрент-статистика

Создавать темы 18-Окт-2016 04:51

[Цитировать]

Информация о фильме
Название: Афера под прикрытием
Оригинальное название: The Infiltrator
Год выхода: 2016
Жанр: Триллер, драма, криминал, биография
Режиссер: Брэд Фурман
В ролях: Брайан Крэнстон, Лиэнн Бест, Дэниэл Мейс, Том Вон-Лолор, Ниал Хэйес, Лара Дэкаро, Джульетт Обри, Олимпия Дукакис, Эми Райан, Джон Легуизамо
О фильме:
Федеральный агент Боб Мейзур, специалист по внедрению в преступные группировки, ставит себе целью раскрыть схему отмывания денег наркокартеля Пабло Эскобара. В одной команде со вспыльчивым оперативником Эмиром Абреу, а также начинающим агентом Кэти Эртс, исполняющей роль подставной невесты Боба, ему предстоит провернуть самую рискованную операцию под прикрытием в истории.

Страна: Великобритания
Студия: Good Films
Продолжительность: 02:07:08
Перевод: Авторский одноголосый (закадровый) | А. Киреев
Файл
Кодек: MPEG-4
Качество: BDRemux 1080p
Видео: 1920x1080, 31.4 Mbit/s, 23.976 fps
Звук:
Аудио #01: 48 kHz, DTS-HD MA, 5.1, 3494 Kbps | Авторский одноголосый (закадровый) |
Аудио #02: 48 kHz, AC3, 5.1, 640 Kbps | Авторский одноголосый (закадровый) |
Аудио #03: 48 kHz, DTS-HD MA, 5.1, 3451 kbps | Оригинал |
Субтитры: Английские

Внимание!

Присутствует ненормативная лексика.

MI

General
Unique ID : 222623873979479761234766406899601315848 (0xA77BCC6C052A1B94AFBB0F033E2D1808)
Complete name : H:VideoThe.Infiltrator.2016.AVO.BDREMUX.1080p.ExKinoRay.mkv
Format : Matroska
Format version : Version 4 / Version 2
File size : 34.6 GiB
Duration : 2 h 7 min
Overall bit rate mode : Variable
Overall bit rate : 39.0 Mb/s
Movie name : build by ***селезень***
Encoded date : UTC 2016-10-18 02:32:12
Writing application : mkvmerge v8.3.0 ('Over the Horizon') 64bit
Writing library : libebml v1.3.1 + libmatroska v1.4.2
Video
ID : 1
Format : AVC
Format/Info : Advanced Video Codec
Format profile : High@L4.1
Format settings, CABAC : Yes
Format settings, ReFrames : 4 frames
Codec ID : V_MPEG4/ISO/AVC
Duration : 2 h 7 min
Bit rate mode : Variable
Bit rate : 31.4 Mb/s
Maximum bit rate : 35.0 Mb/s
Width : 1 920 pixels
Height : 1 080 pixels
Display aspect ratio : 16:9
Frame rate mode : Constant
Frame rate : 23.976 (24000/1001) FPS
Color space : YUV
Chroma subsampling : 4:2:0
Bit depth : 8 bits
Scan type : Progressive
Bits/(Pixel*Frame) : 0.631
Stream size : 27.9 GiB (81%)
Title : build by ***селезень***
Language : English
Default : Yes
Forced : No
Audio #1
ID : 2
Format : DTS
Format/Info : Digital Theater Systems
Format profile : MA / Core
Mode : 16
Format settings, Endianness : Big
Codec ID : A_DTS
Duration : 2 h 7 min
Bit rate mode : Variable / Constant
Bit rate : 3 494 kb/s / 1 509 kb/s
Channel(s) : 6 channels
Channel positions : Front: L C R, Side: L R, LFE
Sampling rate : 48.0 kHz
Frame rate : 93.750 FPS (512 spf)
Bit depth : 24 bits
Compression mode : Lossless / Lossy
Stream size : 3.10 GiB (9%)
Title : AVO-DTS-HD MA [Kireev]
Language : Russian
Default : Yes
Forced : No
Audio #2
ID : 3
Format : AC-3
Format/Info : Audio Coding 3
Mode extension : CM (complete main)
Format settings, Endianness : Big
Codec ID : A_AC3
Duration : 2 h 7 min
Bit rate mode : Constant
Bit rate : 640 kb/s
Channel(s) : 6 channels
Channel positions : Front: L C R, Side: L R, LFE
Sampling rate : 48.0 kHz
Frame rate : 31.250 FPS (1536 spf)
Compression mode : Lossy
Stream size : 582 MiB (2%)
Title : AVO-AC3 [Kireev]
Language : Russian
Default : No
Forced : No
Audio #3
ID : 4
Format : DTS
Format/Info : Digital Theater Systems
Format profile : MA / Core
Mode : 16
Format settings, Endianness : Big
Codec ID : A_DTS
Duration : 2 h 7 min
Bit rate mode : Variable / Constant
Bit rate : 3 451 kb/s / 1 509 kb/s
Channel(s) : 6 channels
Channel positions : Front: L C R, Side: L R, LFE
Sampling rate : 48.0 kHz
Frame rate : 93.750 FPS (512 spf)
Bit depth : 24 bits
Compression mode : Lossless / Lossy
Stream size : 3.07 GiB (9%)
Title : Original
Language : English
Default : No
Forced : No
Text
ID : 5
Format : UTF-8
Codec ID : S_TEXT/UTF8
Codec ID/Info : UTF-8 Plain Text
Duration : 1 h 56 min
Bit rate : 64 b/s
Count of elements : 1529
Stream size : 55.2 KiB (0%)
Title : Full
Language : English
Default : No
Forced : No
Menu
00:00:00.000 : en:Chapter 01
00:09:01.666 : en:Chapter 02
00:17:00.686 : en:Chapter 03
00:24:48.653 : en:Chapter 04
00:28:36.881 : en:Chapter 05
00:35:12.193 : en:Chapter 06
00:42:31.340 : en:Chapter 07
00:51:42.724 : en:Chapter 08
00:57:40.832 : en:Chapter 09
01:02:47.805 : en:Chapter 10
01:07:41.474 : en:Chapter 11
01:17:04.661 : en:Chapter 12
01:24:18.553 : en:Chapter 13
01:31:43.831 : en:Chapter 14
01:40:58.969 : en:Chapter 15
01:47:44.249 : en:Chapter 16
01:52:50.221 : en:Chapter 17
01:58:14.128 : en:Chapter 18
02:07:08.370 : en:Chapter 19

Релиз от: Автор релиза:
[Профиль] [ЛС]
Кто просматривает тему:

Форум Тема Автор Размер
Фильмы (DVD 5/9) Афера (Евгений Лаврентьев) [2001, Россия, криминал, DVD5 (Сжатый)] TorrentFilm 4.36 GB
Фильмы 2011 года Афера / Confidence (2003) DVDRip | D sergej644 744 MB
Фильмы (HD Rips | 720p, 1080p) Афера / The Sting (1973) BDRip 1080p sergej644 9.29 GB
Фильмы (HD Rips | 720p, 1080p) Афера / The Sting (Джордж Рой Хилл / George Roy Hill) [1973, драма, комедия, криминал, BDRip, 720p] Dub + MVO + AVO + Original (Eng) + Subs (Rus, Eng) sergej644 7.78 GB
Фильмы (HD Rips | 720p, 1080p) Афера по-американски / American Hustle (Дэвид О. Расселл / David O. Russell) [2013, США, драма, комедия, криминал, BDRemux 1080p] [NOR] Dub + AVO (Гаврилов) + VO (Doctor Joker) + Original eng + Sub... bot 45.49 GB
Фильмы (HD Rips | 720p, 1080p) Афера по-американски / American Hustle (Дэвид О. Расселл / David O. Russell) [2013, США, драма, комедия, криминал, BDRip 1080p] [NOR] Dub + AVO (Гаврилов) + VO (Doctor Joker) + Original eng + Sub... bot 28.94 GB
Фильмы (HD Rips | 720p, 1080p) Афера по-американски / American Hustle (Дэвид О. Расселл / David O. Russell) [2013, США, драма, комедия, криминал, BDRip 720p] [NOR] Dub + AVO (Гаврилов) + VO (Doctor Joker) + Original eng + Sub rus,... bot 14.06 GB
Фильмы (HD Rips | 720p, 1080p) Афера под прикрытием / The Infiltrator (2016) BDRip 1080p | iTunes достали все 11.98 GB
Показать сообщения:    

Текущее время: Сегодня 06:07

Часовой пояс: GMT



Вы не можете начинать темы
Вы не можете отвечать на сообщения
Вы не можете редактировать свои сообщения
Вы не можете удалять свои сообщения
Вы не можете голосовать в опросах
Вы не можете прикреплять файлы к сообщениям
Вы не можете скачивать файлы