Афера под прикрытием / The Infiltrator (2016) BDRip 1080p | Звук с TS

 
Автор Сообщение

BOSS ®

Пол:

Стаж: 2 года 1 месяц

Сообщений: 3732

Откуда: ODESSA



Награды: 20 (Подробнее)

Mega Releaser 3 (Количество: 1) Top Seeder 5 (Количество: 1) Mega Seeder 2 (Количество: 1)
Торрент-статистика

Создавать темы 30-Сен-2016 19:55

[Цитировать]

Афера под прикрытием / The Infiltrator
Страна: Великобритания
Производство: Good Films
Год выпуска: 2016
Жанр: триллер, драма, криминал, биография
Продолжительность: 02:07:01
Режиссер: Дэвид Лоури
Авторы сценария: Дэвид Лоури, Тоби Хальбрукс, Малкольм Марморстин
В ролях: Брайан Крэнстон, Лиэнн Бест, Дэниэл Мейс, Том Вон-Лолор, Ниал Хэйес, Лара Дэкаро, Джульетт Обри, Олимпия Дукакис
Описание: Федеральный агент Боб Мейзур, специалист по внедрению в преступные группировки, ставит перед собой цель раскрыть схему отмывания денег наркокартеля Пабло Эскобара. В одной команде со вспыльчивым оперативником Эмиром Абреу, а также начинающим агентом Кэти Эртс, исполняющей роль подставной невесты Боба, ему предстоит провернуть самую рискованную операцию под прикрытием в истории...

Перевод: Профессиональный (полное дублирование) | Звук с TS
Субтитры: нет-Качество: BDRip 1080p
Формат: МКV
Видео кодек: AVC
Аудио кодек: АС3
Видео: 1920x804 (2.40:1), 23.976 fps, MPEG-4 AVC ~11.0 Мbps avg
Аудио: 48 kHz, AC3 Dolby Digital, 2/0 (L,R) ch, ~384 kbps
Бюджет: $25 000 000
Дата премьеры (мир): 6 июля 2016
Дата премьеры (РФ): 11 августа 2016, «Вольга»

Media Info

General
Unique ID : 238924704861311792786120831362817870425 (0xB3BF396F4E0F3CE599CAD5EB89844A59)
Complete name : The.Infiltrator.2016.Dt.BDRip.1O8Op_KOSHARA.mkv
Format : Matroska
Format version : Version 2
File size : 10.3 GiB
Duration : 2h 7mn
Overall bit rate mode : Variable
Overall bit rate : 11.6 Mbps
Encoded date : UTC 2016-09-30 12:08:48
Writing application : mkvmerge v8.3.0 ('Over the Horizon') 64bit
Writing library : libebml v1.3.1 + libmatroska v1.4.2
Video
ID : 1
Format : AVC
Format/Info : Advanced Video Codec
Format profile : High@L4
Format settings, CABAC : Yes
Format settings, ReFrames : 5 frames
Codec ID : V_MPEG4/ISO/AVC
Duration : 2h 7mn
Bit rate mode : Variable
Bit rate : 11.0 Mbps
Maximum bit rate : 12.0 Mbps
Width : 1 920 pixels
Height : 804 pixels
Display aspect ratio : 2.40:1
Frame rate mode : Constant
Frame rate : 23.976 fps
Standard : Component
Color space : YUV
Chroma subsampling : 4:2:0
Bit depth : 8 bits
Scan type : Progressive
Bits/(Pixel*Frame) : 0.297
Stream size : 9.74 GiB (95%)
Default : Yes
Forced : No
Color range : Limited
Color primaries : BT.709
Transfer characteristics : BT.709
Matrix coefficients : BT.709
Audio
ID : 2
Format : AC-3
Format/Info : Audio Coding 3
Mode extension : CM (complete main)
Format settings, Endianness : Big
Codec ID : A_AC3
Duration : 2h 7mn
Bit rate mode : Constant
Bit rate : 384 Kbps
Channel(s) : 2 channels
Channel positions : Front: L R
Sampling rate : 48.0 KHz
Bit depth : 16 bits
Compression mode : Lossy
Stream size : 349 MiB (3%)
Default : Yes
Forced : No

Скриншоты

[Профиль] [ЛС]
Кто просматривает тему:

Форум Тема Автор Размер
Фильмы (DVD 5/9) Афера (Евгений Лаврентьев) [2001, Россия, криминал, DVD5 (Сжатый)] TorrentFilm 4.36 GB
Фильмы 2011 года Афера / Confidence (2003) DVDRip | D sergej644 744 MB
Фильмы (HD Rips | 720p, 1080p) Афера / The Sting (1973) BDRip 1080p sergej644 9.29 GB
Фильмы (HD Rips | 720p, 1080p) Афера / The Sting (Джордж Рой Хилл / George Roy Hill) [1973, драма, комедия, криминал, BDRip, 720p] Dub + MVO + AVO + Original (Eng) + Subs (Rus, Eng) sergej644 7.78 GB
Фильмы (HD Rips | 720p, 1080p) Афера по-американски / American Hustle (Дэвид О. Расселл / David O. Russell) [2013, США, драма, комедия, криминал, BDRemux 1080p] [NOR] Dub + AVO (Гаврилов) + VO (Doctor Joker) + Original eng + Sub... bot 45.49 GB
Фильмы (HD Rips | 720p, 1080p) Афера по-американски / American Hustle (Дэвид О. Расселл / David O. Russell) [2013, США, драма, комедия, криминал, BDRip 1080p] [NOR] Dub + AVO (Гаврилов) + VO (Doctor Joker) + Original eng + Sub... bot 28.94 GB
Фильмы (HD Rips | 720p, 1080p) Афера по-американски / American Hustle (Дэвид О. Расселл / David O. Russell) [2013, США, драма, комедия, криминал, BDRip 720p] [NOR] Dub + AVO (Гаврилов) + VO (Doctor Joker) + Original eng + Sub rus,... bot 14.06 GB
Фильмы (HD DVD, Blu-ray и BDRemux) Афера под прикрытием / The Infiltrator (2016) BDRemux 1080p от ExKinoRay | A Russian Mafia 34.6 GB
Показать сообщения:    

Текущее время: Сегодня 08:32

Часовой пояс: GMT



Вы не можете начинать темы
Вы не можете отвечать на сообщения
Вы не можете редактировать свои сообщения
Вы не можете удалять свои сообщения
Вы не можете голосовать в опросах
Вы не можете прикреплять файлы к сообщениям
Вы не можете скачивать файлы