Афган. Фильм Андрея Кондрашова (2014) HDTVRip 720p

 
Автор Сообщение

Russian Mafia ®

Пол:

Стаж: 1 год 8 месяцев

Сообщений: 4257



Награды: 10 (Подробнее)

Top Releaser 4 (Количество: 1) Mega Seeder 1 (Количество: 1) Top Releaser 5 (Количество: 1)
Торрент-статистика

Создавать темы 24-Авг-2015 09:27

[Цитировать]

Афган. Фильм Андрея Кондрашова- Год выпуска: 2014
Страна: Россия
Студия: Россия HD
Жанр: Документальный
Продолжительность: 1:41:33
Режиссер: Сергей Краус-Описание: 25 лет назад, в феврале 1989 года, Советский Союз вывел войска из Афганистана. Закончилась последняя война огромной и еще единой страны. Что это было – провал или победа? Кто все это время оставался в тени военных баталий? Как в Афганистане столкнулись ГРУ и ЦРУ? Кто извлек прибыль из этой войны?-Автор рипа: lrn
Автор записи: semenonn
Сэмпл: sendfile-Тип релиза: HDTVRip 720p
Контейнер: MKV
Видео: 1280x720 (16:9), 25,000 fps, H264, ~4000 kbps avg, ~0.174 bit/pixel
Аудио: 48 kHz, AC3 Dolby Digital, 2/0 (L,R) ch, ~192.00 kbps avg-

MediaInfo

General
Unique ID : 248338150859930072687333552641632949397 (0xBAD43027CFFB27699256A5B7EAC8D495)
Complete name : E:uTorrent.TempTempAfgan.2014.HDTV.720p.x264-lrn.mkv
Format : Matroska
Format version : Version 4 / Version 2
File size : 2.97 GiB
Duration : 1h 41mn
Overall bit rate : 4 194 Kbps
Movie name : Afgan.2014.HDTV.720p.x264-lrn
Encoded date : UTC 2010-02-22 21:41:31
Writing application : mkvmerge v5.9.0 ('On The Loose') built on Dec 9 2012 15:37:01
Writing library : libebml v1.3.0 + libmatroska v1.4.0
Video
ID : 1
Format : AVC
Format/Info : Advanced Video Codec
Format profile : High@L4.1
Format settings, CABAC : Yes
Format settings, ReFrames : 8 frames
Codec ID : V_MPEG4/ISO/AVC
Duration : 1h 41mn
Bit rate : 4 000 Kbps
Width : 1 280 pixels
Height : 720 pixels
Display aspect ratio : 16:9
Frame rate mode : Constant
Frame rate : 25.000 fps
Color space : YUV
Chroma subsampling : 4:2:0
Bit depth : 8 bits
Scan type : Progressive
Bits/(Pixel*Frame) : 0.174
Stream size : 2.78 GiB (93%)
Writing library : x264 core 142 r2479 dd79a61
Encoding settings : cabac=1 / ref=8 / deblock=1:-3:-3 / analyse=0x3:0x133 / me=umh / subme=9 / psy=1 / psy_rd=1.00:0.00 / mixed_ref=1 / me_range=32 / chroma_me=1 / trellis=2 / 8x8dct=1 / cqm=0 / deadzone=21,11 / fast_pskip=1 / chroma_qp_offset=-2 / threads=12 / lookahead_threads=2 / sliced_threads=0 / nr=0 / decimate=1 / interlaced=0 / bluray_compat=0 / constrained_intra=0 / bframes=8 / b_pyramid=2 / b_adapt=2 / b_bias=0 / direct=3 / weightb=1 / open_gop=0 / weightp=2 / keyint=250 / keyint_min=25 / scenecut=40 / intra_refresh=0 / rc_lookahead=50 / rc=2pass / mbtree=1 / bitrate=4000 / ratetol=1.0 / qcomp=0.60 / qpmin=0 / qpmax=69 / qpstep=4 / cplxblur=20.0 / qblur=0.5 / vbv_maxrate=62500 / vbv_bufsize=78125 / nal_hrd=none / filler=0 / ip_ratio=1.40 / aq=1:1.00
Default : Yes
Forced : No
Color range : Limited
Color primaries : BT.709
Transfer characteristics : BT.709
Matrix coefficients : BT.709
Audio
ID : 2
Format : AC-3
Format/Info : Audio Coding 3
Mode extension : CM (complete main)
Format settings, Endianness : Big
Codec ID : A_AC3
Duration : 1h 41mn
Bit rate mode : Constant
Bit rate : 192 Kbps
Channel(s) : 2 channels
Channel positions : Front: L R
Sampling rate : 48.0 KHz
Compression mode : Lossy
Delay relative to video : 100ms
Stream size : 139 MiB (5%)
Language : Russian
Default : Yes
Forced : No

x264 log

raw [info]: 1280x720p 1:1 @ 25/1 fps (cfr)
x264 [info]: using SAR=1/1
x264 [info]: using cpu capabilities: MMX2 SSE2Fast SSSE3 SSE4.2 AVX
x264 [info]: profile High, level 4.1
x264 [info]: frame I:1154 Avg QP:12.71 size:106929
x264 [info]: frame P:41488 Avg QP:15.48 size: 37221
x264 [info]: frame B:109690 Avg QP:17.65 size: 12571
x264 [info]: consecutive B-frames: 3.0% 6.3% 6.3% 67.5% 6.0% 6.6% 1.3% 2.6% 0.3%
x264 [info]: mb I I16..4: 5.5% 78.2% 16.3%
x264 [info]: mb P I16..4: 3.1% 20.4% 1.9% P16..4: 36.7% 19.9% 11.5% 0.5% 0.2% skip: 5.8%
x264 [info]: mb B I16..4: 0.7% 3.5% 0.3% B16..8: 32.9% 11.7% 2.3% direct: 8.9% skip:39.8% L0:42.6% L1:43.0% BI:14.4%
x264 [info]: 8x8 transform intra:79.7% inter:61.1%
x264 [info]: direct mvs spatial:98.2% temporal:1.8%
x264 [info]: coded y,uvDC,uvAC intra: 74.2% 84.7% 54.3% inter: 24.3% 33.6% 3.7%
x264 [info]: i16 v,h,dc,p: 42% 17% 6% 36%
x264 [info]: i8 v,h,dc,ddl,ddr,vr,hd,vl,hu: 19% 13% 11% 6% 9% 11% 10% 11% 12%
x264 [info]: i4 v,h,dc,ddl,ddr,vr,hd,vl,hu: 19% 12% 8% 7% 12% 13% 11% 9% 9%
x264 [info]: i8c dc,h,v,p: 37% 27% 20% 15%
x264 [info]: Weighted P-Frames: Y:2.2% UV:0.9%
x264 [info]: ref P L0: 55.2% 9.6% 16.1% 5.7% 4.6% 3.4% 3.1% 2.2% 0.2% 0.0%
x264 [info]: ref B L0: 77.3% 10.9% 5.2% 2.6% 2.1% 1.2% 0.6%
x264 [info]: ref B L1: 94.7% 5.3%
x264 [info]: kb/s:3999.84
encoded 152332 frames, 11.21 fps, 3999.84 kb/s

Скриншоты

[Профиль] [ЛС]
Показать сообщения:    

Текущее время: Сегодня 08:18

Часовой пояс: GMT



Вы не можете начинать темы
Вы не можете отвечать на сообщения
Вы не можете редактировать свои сообщения
Вы не можете удалять свои сообщения
Вы не можете голосовать в опросах
Вы не можете прикреплять файлы к сообщениям
Вы не можете скачивать файлы