АукцЫон. Еще (2014) HDTVRip 720p

 
Автор Сообщение

достали все ®

Пол:

Стаж: 1 год 8 месяцев

Сообщений: 6554



Награды: 12 (Подробнее)

Mega Seeder 1 (Количество: 1) За внесенный вклад в развитие сайта (Количество: 1) Mega Releaser 1 (Количество: 1)
Торрент-статистика

Создавать темы 12-Окт-2015 03:40

[Цитировать]

АукцЫон. Еще- Дата/Год выпуска: 2014
Страна: Россия | Beat Films
Телеканал: Первый Канал HD
Жанр: Документальный
Продолжительность: 1:35:43
Режессер: Дмитрий Лавриненко-Описание: "Ещё" - первый настоящий фильм о группе "АукцЫон", основанной Леонидом Федоровым в 1978 году. Режиссер картины Дмитрий Лавриненко снимал её последние семь лет и побывал там, куда Федоров и сотоварищи никого и близко не подпускали. "Ещё" - первый настоящий фильм о культовой группе "АукцЫон", основанной Леонидом Федоровым в 1978 году.
-Автор рипа: lrn
Автор записи: Alexin29
Сэмпл: sendfile-Качество: HDTVRip 720p
Формат: MKV
Видео: 1280x720 (16:9), 25,000 fps, H264, ~4000 kbps avg, ~0.174 bit/pixel
Аудио: 48 kHz, AC3 Dolby Digital, 3/2 (L,C,R,l,r) + LFE ch, ~384.00 kbps avg-

MediaInfo

General
Unique ID : 170693331201835661421017038048196938307 (0x806A56FC45EB4106AF9478D6E005CA43)
Complete name : E:uTorrent.TempTempAukcion.Eshe.2014.HDTV.720p.x264-lrn.mkv
Format : Matroska
Format version : Version 4 / Version 2
File size : 2.93 GiB
Duration : 1h 35mn
Overall bit rate : 4 386 Kbps
Movie name : Aukcion.Eshe.2014.HDTV.720p.x264-lrn
Encoded date : UTC 2010-02-22 21:41:31
Writing application : mkvmerge v5.9.0 ('On The Loose') built on Dec 9 2012 15:37:01
Writing library : libebml v1.3.0 + libmatroska v1.4.0
DURATION : 01:35:43.800000000
NUMBER_OF_FRAMES : 143595
NUMBER_OF_BYTES : 2871785211
_STATISTICS_WRITING_APP : mkvmerge v7.7.0 ('Six Voices') 32bit built on Feb 28 2015 23:23:00
_STATISTICS_WRITING_DATE_UT : 2015-10-11 20:18:45
_STATISTICS_TAGS : BPS DURATION NUMBER_OF_FRAMES NUMBER_OF_BYTES
Video
ID : 1
Format : AVC
Format/Info : Advanced Video Codec
Format profile : High@L4.1
Format settings, CABAC : Yes
Format settings, ReFrames : 8 frames
Codec ID : V_MPEG4/ISO/AVC
Duration : 1h 35mn
Bit rate : 4 000 Kbps
Width : 1 280 pixels
Height : 720 pixels
Display aspect ratio : 16:9
Frame rate mode : Constant
Frame rate : 25.000 fps
Color space : YUV
Chroma subsampling : 4:2:0
Bit depth : 8 bits
Scan type : Progressive
Bits/(Pixel*Frame) : 0.174
Stream size : 2.62 GiB (89%)
Writing library : x264 core 146 r2538 121396c
Encoding settings : cabac=1 / ref=8 / deblock=1:-3:-3 / analyse=0x3:0x133 / me=umh / subme=9 / psy=1 / psy_rd=1.00:0.00 / mixed_ref=1 / me_range=32 / chroma_me=1 / trellis=2 / 8x8dct=1 / cqm=0 / deadzone=21,11 / fast_pskip=1 / chroma_qp_offset=-2 / threads=12 / lookahead_threads=2 / sliced_threads=0 / nr=0 / decimate=1 / interlaced=0 / bluray_compat=0 / constrained_intra=0 / bframes=8 / b_pyramid=2 / b_adapt=2 / b_bias=0 / direct=3 / weightb=1 / open_gop=0 / weightp=2 / keyint=250 / keyint_min=25 / scenecut=40 / intra_refresh=0 / rc_lookahead=50 / rc=2pass / mbtree=1 / bitrate=4000 / ratetol=1.0 / qcomp=0.60 / qpmin=0 / qpmax=69 / qpstep=4 / cplxblur=20.0 / qblur=0.5 / vbv_maxrate=62500 / vbv_bufsize=78125 / nal_hrd=none / filler=0 / ip_ratio=1.40 / aq=1:1.00
Default : Yes
Forced : No
Audio
ID : 2
Format : AC-3
Format/Info : Audio Coding 3
Mode extension : CM (complete main)
Format settings, Endianness : Big
Codec ID : A_AC3
Duration : 1h 35mn
Bit rate mode : Constant
Bit rate : 384 Kbps
Channel(s) : 6 channels
Channel positions : Front: L C R, Side: L R, LFE
Sampling rate : 48.0 KHz
Compression mode : Lossy
Stream size : 263 MiB (9%)
Language : Russian
Default : Yes
Forced : No

x264 log

raw [info]: 1280x720p 1:1 @ 25/1 fps (cfr)
x264 [info]: using SAR=1/1
x264 [info]: using cpu capabilities: MMX2 SSE2Fast SSSE3 SSE4.2 AVX
x264 [info]: profile High, level 4.1
x264 [info]: frame I:1038 Avg QP:14.80 size: 85225
x264 [info]: frame P:39729 Avg QP:17.85 size: 32787
x264 [info]: frame B:102828 Avg QP:19.28 size: 14400
x264 [info]: consecutive B-frames: 3.6% 7.5% 8.4% 55.5% 8.3% 14.2% 0.7% 1.1% 0.6%
x264 [info]: mb I I16..4: 10.0% 77.8% 12.1%
x264 [info]: mb P I16..4: 4.8% 16.0% 1.3% P16..4: 46.0% 17.1% 9.3% 0.2% 0.0% skip: 5.2%
x264 [info]: mb B I16..4: 0.5% 1.7% 0.2% B16..8: 42.0% 10.8% 2.0% direct:10.4% skip:32.4% L0:43.8% L1:46.3% BI: 9.9%
x264 [info]: 8x8 transform intra:72.7% inter:71.5%
x264 [info]: direct mvs spatial:99.1% temporal:0.9%
x264 [info]: coded y,uvDC,uvAC intra: 66.9% 71.3% 39.0% inter: 31.1% 30.0% 2.1%
x264 [info]: i16 v,h,dc,p: 42% 13% 7% 38%
x264 [info]: i8 v,h,dc,ddl,ddr,vr,hd,vl,hu: 11% 10% 8% 9% 12% 13% 13% 12% 13%
x264 [info]: i4 v,h,dc,ddl,ddr,vr,hd,vl,hu: 12% 8% 5% 9% 15% 15% 13% 11% 12%
x264 [info]: i8c dc,h,v,p: 40% 24% 20% 16%
x264 [info]: Weighted P-Frames: Y:4.1% UV:2.2%
x264 [info]: ref P L0: 48.0% 9.3% 17.1% 7.5% 5.6% 4.9% 4.0% 3.1% 0.4% 0.0%
x264 [info]: ref B L0: 77.4% 10.9% 5.1% 2.6% 2.0% 1.3% 0.7%
x264 [info]: ref B L1: 94.8% 5.2%
x264 [info]: kb/s:3999.84
encoded 143595 frames, 12.25 fps, 3999.84 kb/s

Скриншоты

[Профиль] [ЛС]
Кто просматривает тему:

Форум Тема Автор Размер
Rock АукцЫон - На солнце (2016) MP3 достали все 60 MB
Телепередачи АукцЫон. Еще (2014) HDTVRip-AVC достали все 1.26 GB
Показать сообщения:    

Текущее время: Сегодня 08:52

Часовой пояс: GMT



Вы не можете начинать темы
Вы не можете отвечать на сообщения
Вы не можете редактировать свои сообщения
Вы не можете удалять свои сообщения
Вы не можете голосовать в опросах
Вы не можете прикреплять файлы к сообщениям
Вы не можете скачивать файлы