Аттила-завоеватель / Attila (Дик Лаури / Dick Lowry) [2001, США, Литва, боевик, драма, приключения, военный, исторический, BDRip-AVC] 2xMVO + Original (Eng) + Sub (Rus, Eng)

 
Автор Сообщение

sergej644 ®

Пол:

Стаж: 4 года 11 месяцев

Сообщений: 6046

Откуда: Soviet Union



Награды: Нет

Торрент-статистика

Создавать темы 12-Авг-2014 09:54

[Цитировать]

--Аттила-завоеватель / Attila
Страна: США, Литва
Жанр: боевик, драма, приключения, военный, исторический
Год выпуска: 2001
Продолжительность: 02:54:51
Перевод#1: Профессиональный (многоголосый закадровый) |R5
Перевод#2: Профессиональный (многоголосый закадровый)
Cубтитры: русские (King of Holland), английские
Оригинальная аудиодорожка: английский
Режиссер: Дик Лаури / Dick Lowry
В ролях: Джерард Батлер, Пауэрс Бут, Симон Маккинон, Рег Роджерс, Элис Крайдж, Полин Линч, Стивен Беркофф, Эндрю Плевин, Томми Флэнаган, Кирсти Митчел
Описание: Древние пророчества гласили, что однажды появится человек, который сможет объединить племена свирепых воинов и бросить вызов непобедимой Римской Империи, которая веками правила античным миром.
Имя этого человека стало легендарным и навсегда вошло в историю человечества: Аттила - бесстрашный повелитель гуннов. Фильм повествует о противостоянии двух самых могущественных людей своего времени и их армий - непокорного Аттилы и прославленного римского генерала Флавия...

Доп. информация: за работу над дорогами благодарим Linger babe
Исходник:BDRemux
Качество видео: BDRip-AVC | sample
Формат видео: MKV
Видео кодек: x264
Видео: AVC 960x540 (16:9), 23.976 fps, ~4450 Kbps, 0.35 bit/pixel
Аудио #1: Russian AC3 2ch 48kHz 192Kbps | MVO R5
Аудио #2: Russian AC3 2ch 48kHz 192Kbps | MVO
Аудио #3: English AC3 6ch 48kHz 448Kbps | Original
Формат субтитров: softsub (SRT)
Главы: есть

x264

--[Information] [03.08.2014 18:24:34] raw [info]: 960x540p 1:1 @ 24000/1001 fps (cfr)
--[Information] [03.08.2014 18:24:34] x264 [info]: profile High, level 4.1
--[Information] [04.08.2014 8:50:58] x264 [info]: frame I:1956 Avg QP:18.68 size:102253
--[Information] [04.08.2014 8:50:59] x264 [info]: frame P:51707 Avg QP:21.16 size: 40502
--[Information] [04.08.2014 8:50:59] x264 [info]: frame B:197876 Avg QP:21.98 size: 18006
--[Information] [04.08.2014 8:50:59] x264 [info]: consecutive B-frames: 1.3% 1.3% 6.2% 21.2% 15.8% 49.4% 3.7% 0.5% 0.4% 0.1% 0.1% 0.0% 0.1%
--[Information] [04.08.2014 8:50:59] x264 [info]: kb/s:4466.33

MediaInfo

General
Complete name : D:\...\Attila.2001.BDRip.x264.AC3.2xRus.Eng-E76.mkv
Format : Matroska
Format version : Version 2
File size : 6.47 GiB
Duration : 2h 54mn
Overall bit rate : 5 301 Kbps
Movie name : Attila.2001.BDRip.x264.AC3.2xRus.Eng-E76
Encoded date : UTC 2014-08-09 16:26:07
Writing application : mkvmerge v7.0.0 ('Where We Going') 64bit built on Jun 9 2014 15:16:27
Writing library : libebml v1.3.0 + libmatroska v1.4.1
Video
ID : 1
Format : AVC
Format/Info : Advanced Video Codec
Format profile : High@L4.1
Format settings, CABAC : Yes
Format settings, ReFrames : 10 frames
Codec ID : V_MPEG4/ISO/AVC
Duration : 2h 54mn
Bit rate : 4 363 Kbps
Width : 960 pixels
Height : 540 pixels
Display aspect ratio : 16:9
Frame rate mode : Constant
Frame rate : 23.976 fps
Color space : YUV
Chroma subsampling : 4:2:0
Bit depth : 8 bits
Scan type : Progressive
Bits/(Pixel*Frame) : 0.351
Stream size : 5.33 GiB (82%)
Title : Encode by E76
Writing library : x264 core 142 r2431kMod ac76440
Encoding settings : cabac=1 / ref=10 / deblock=1:-3:-2 / analyse=0x3:0x113 / me=umh / subme=11 / psy=1 / fade_compensate=0.00 / psy_rd=1.00:0.10 / mixed_ref=1 / me_range=48 / chroma_me=1 / trellis=2 / 8x8dct=1 / cqm=0 / deadzone=21,11 / fast_pskip=1 / chroma_qp_offset=-3 / threads=6 / lookahead_threads=1 / sliced_threads=0 / nr=0 / decimate=1 / interlaced=0 / bluray_compat=0 / constrained_intra=0 / fgo=0 / bframes=12 / b_pyramid=2 / b_adapt=2 / b_bias=0 / direct=1 / weightb=1 / open_gop=0 / weightp=2 / keyint=240 / keyint_min=23 / scenecut=40 / intra_refresh=0 / rc_lookahead=0 / rc=crf / mbtree=0 / crf=20.1500 / qcomp=0.70 / qpmin=0 / qpmax=69 / qpstep=4 / vbv_maxrate=50000 / vbv_bufsize=62500 / crf_max=0.0 / nal_hrd=none / filler=0 / ip_ratio=1.40 / pb_ratio=1.10 / aq=3:1.00 / zones=249860,251538,q=30
Language : English
Default : Yes
Forced : No
Matrix coefficients : BT.709
Audio #1
ID : 2
Format : AC-3
Format/Info : Audio Coding 3
Mode extension : CM (complete main)
Format settings, Endianness : Big
Codec ID : A_AC3
Duration : 2h 54mn
Bit rate mode : Constant
Bit rate : 192 Kbps
Channel(s) : 2 channels
Channel positions : Front: L R
Sampling rate : 48.0 KHz
Bit depth : 16 bits
Compression mode : Lossy
Stream size : 240 MiB (4%)
Title : MVO R5
Language : Russian
Default : Yes
Forced : No
Audio #2
ID : 3
Format : AC-3
Format/Info : Audio Coding 3
Mode extension : CM (complete main)
Format settings, Endianness : Big
Codec ID : A_AC3
Duration : 2h 54mn
Bit rate mode : Constant
Bit rate : 192 Kbps
Channel(s) : 2 channels
Channel positions : Front: L R
Sampling rate : 48.0 KHz
Bit depth : 16 bits
Compression mode : Lossy
Stream size : 240 MiB (4%)
Title : MVO
Language : Russian
Default : No
Forced : No
Audio #3
ID : 4
Format : AC-3
Format/Info : Audio Coding 3
Mode extension : CM (complete main)
Format settings, Endianness : Big
Codec ID : A_AC3
Duration : 2h 54mn
Bit rate mode : Constant
Bit rate : 448 Kbps
Channel(s) : 6 channels
Channel positions : Front: L C R, Side: L R, LFE
Sampling rate : 48.0 KHz
Bit depth : 16 bits
Compression mode : Lossy
Stream size : 560 MiB (8%)
Title : Original
Language : English
Default : No
Forced : No
Text #1
ID : 5
Format : UTF-8
Codec ID : S_TEXT/UTF8
Codec ID/Info : UTF-8 Plain Text
Title : King of Holland
Language : Russian
Default : No
Forced : No
Text #2
ID : 6
Format : UTF-8
Codec ID : S_TEXT/UTF8
Codec ID/Info : UTF-8 Plain Text
Language : English
Default : No
Forced : No
Menu
00:00:00.000 : en:00:00:00.000
00:14:04.469 : en:00:14:04.469
...
02:39:29.435 : en:02:39:29.435

Скриншоты




vs source
--
[Профиль] [ЛС]

Создавать темы 06-Авг-2015 23:19 (спустя 11 месяцев 25 дней)

Топик был перенесен из форума Фильмы до 2014 года в форум Фильмы до 2012 года
sergej644
 
Показать сообщения:    

Текущее время: Сегодня 16:54

Часовой пояс: GMT



Вы не можете начинать темы
Вы не можете отвечать на сообщения
Вы не можете редактировать свои сообщения
Вы не можете удалять свои сообщения
Вы не можете голосовать в опросах
Вы не можете прикреплять файлы к сообщениям
Вы не можете скачивать файлы