Атлантик-Сити / Atlantic City (1980) BDRip 1080p от MediaClub | D, P, P2, A

 
Автор Сообщение

Russian Mafia ®

Пол:

Стаж: 1 год 8 месяцев

Сообщений: 4255



Награды: 10 (Подробнее)

Mega Seeder 1 (Количество: 1) Mega Seeder 5 (Количество: 1) Top Releaser 4 (Количество: 1)
Торрент-статистика

Создавать темы 03-Авг-2016 14:31

[Цитировать]

Информация о фильме
Название: Атлантик-Сити
Оригинальное название: Atlantic City
Год выхода: 1980
Жанр: Драма, мелодрама, криминал
Режиссер: Луи Малль
В ролях: Бёрт Ланкастер, Сьюзен Сарандон, Мишель Пикколи, Холлис МакЛарен, Роберт Джой, Моузес Знеймер, Робер Гуле, Эл Уоксмен, Кейт Рид, Энгус МакИннес, Шон Салливан, Уоллес Шоун, Харви Аиткен, Норма Делль’Аньезе, Луис Дель Гранде, Джон МакКарри, Элинор Бикрофт, Сек Линдер, Шон МакКэнн, Винсент Глориосо
О фильме:
Гангстер Лу ушёл на покой и живёт в Атлантик-Сити, такой же столице американского игорного бизнеса, как и Лас-Вегас. Но жизнь Лу круто меняется, когда он знакомится с молодым жуликом Дэйвом, укравшем наркотики у мафии, и его бывшей женой Сэлли, работающей в одном из казино Атлантик-Сити. Мафиози настигают и убивают Дэйва, а Лу и Сэлли попадают в самый центр событий, в которых смешалось всё — любовь и деньги, наркотики и смерть...
Страна: Канада, Франция
Студия: Canadian Film Development Corporation (CFDC), Cine-Neighbor Inc., Famous Players Limited
Продолжительность: 01:44:55
Перевод: Дублированный, Профессиональный многоголосый, Профессиональный двухголосый, Авторский
Файл
Кодек: h.264
Качество: BDRip 1080p
Видео: MPEG-4 AVC, 16300 Кбит/с, 1792x1080, 23.976 кадр/с
Звук:
Аудио #1: Русский (AC3, 2 ch, 192 Кбит/с) / Дублированный (киностудия "Ленфильм")
Аудио #2: Русский (AC3, 2 ch, 192 Кбит/с) / Профессиональный многоголосый (Cinema Prestige)
Аудио #3: Русский (AC3, 2 ch, 192 Кбит/с) / Профессиональный двухголосый (Екатеринбург Арт)
Аудио #4: Русский (AC3, 2 ch, 192 Кбит/с) / Авторский (Андрей Гаврилов)
Аудио #5: Английский (AC3, 2 ch, 384 Кбит/с)
Субтитры: Русские, английские
Семпл

О релизе

Автор релиза - Silverok, За BDRemux спасибо Core_soul
Субтитры: S_TEXT/UTF8 (SRT) - Русские, английские
В дорожке №1 присутствуют вставки закадрового проф. перевода.
В дорожке №4 отсутствующие фрагменты переведены субтитрами.
Главы с издания Cinema Prestige.
Сохранены оригинальные главы как на Blu-ray

MI

Общее
Уникальный идентификатор : 248544239170828880287493547773470341163 (0xBAFBE117FF0C72CC9FAD3E24407E782B)
Полное имя : D:uTorrentAtlantik-Siti.1980.BDRip.1080p.MediaClub.mkv
Формат : Matroska
Версия формата : Version 4 / Version 2
Размер файла : 12,8 Гбайт
Продолжительность : 1 ч. 44 м.
Общий поток : 17,5 Мбит/сек
Дата кодирования : UTC 2016-08-03 06:42:13
Программа кодирования : mkvmerge v9.3.1 ('Mask Machine') 64bit
Библиотека кодирования : libebml v1.3.4 + libmatroska v1.4.5
Видео
Идентификатор : 1
Формат : AVC
Формат/Информация : Advanced Video Codec
Профиль формата : High@L4.1
Параметр CABAC формата : Да
Параметр ReFrames формата : 4 кадра
Идентификатор кодека : V_MPEG4/ISO/AVC
Продолжительность : 1 ч. 44 м.
Битрейт : 16,3 Мбит/сек
Ширина : 1792 пикселя
Высота : 1080 пикселей
Соотношение сторон : 5:3
Режим частоты кадров : Постоянный
Частота кадров : 24,000 кадра/сек
Цветовое пространство : YUV
Субдискретизация насыщенности : 4:2:0
Битовая глубина : 8 бит
Тип развёртки : Прогрессивная
Бит/(Пиксели*Кадры) : 0.351
Размер потока : 11,9 Гбайт (93%)
Заголовок : BDRip by Silverok
Библиотека кодирования : x264 core 148 r2638 7599210
Настройки программы : cabac=1 / ref=4 / deblock=1:-3:-3 / analyse=0x3:0x113 / me=umh / subme=11 / psy=1 / psy_rd=1.00:0.10 / mixed_ref=1 / me_range=32 / chroma_me=1 / trellis=2 / 8x8dct=1 / cqm=0 / deadzone=21,11 / fast_pskip=0 / chroma_qp_offset=-3 / threads=12 / lookahead_threads=3 / sliced_threads=0 / nr=0 / decimate=0 / interlaced=0 / bluray_compat=0 / constrained_intra=0 / bframes=12 / b_pyramid=2 / b_adapt=2 / b_bias=0 / direct=3 / weightb=1 / open_gop=0 / weightp=2 / keyint=240 / keyint_min=24 / scenecut=40 / intra_refresh=0 / rc=2pass / mbtree=0 / bitrate=16300 / ratetol=1.0 / qcomp=0.60 / qpmin=0 / qpmax=69 / qpstep=4 / cplxblur=20.0 / qblur=0.5 / ip_ratio=1.40 / pb_ratio=1.30 / aq=1:1.00
Default : Да
Forced : Нет
Аудио #1
Идентификатор : 2
Формат : AC-3
Формат/Информация : Audio Coding 3
Расширение режима : CM (complete main)
Параметр Endianness формата : Big
Идентификатор кодека : A_AC3
Продолжительность : 1 ч. 44 м.
Вид битрейта : Постоянный
Битрейт : 192 Кбит/сек
Каналы : 2 канала
Расположение каналов : Front: L R
Частота : 48,0 КГц
Частота кадров : 31,250 кадров/сек (1536 spf)
Метод сжатия : С потерями
Размер потока : 144 Мбайт (1%)
Заголовок : дублированный (киностудия "Ленфильм")
Язык : Russian
Default : Да
Forced : Нет
Аудио #2
Идентификатор : 3
Формат : AC-3
Формат/Информация : Audio Coding 3
Расширение режима : CM (complete main)
Параметр Endianness формата : Big
Идентификатор кодека : A_AC3
Продолжительность : 1 ч. 44 м.
Вид битрейта : Постоянный
Битрейт : 192 Кбит/сек
Каналы : 2 канала
Расположение каналов : Front: L R
Частота : 48,0 КГц
Частота кадров : 31,250 кадров/сек (1536 spf)
Метод сжатия : С потерями
Размер потока : 144 Мбайт (1%)
Заголовок : Профессиональный многоголосый (Cinema Prestige)
Язык : Russian
Default : Нет
Forced : Нет
Аудио #3
Идентификатор : 4
Формат : AC-3
Формат/Информация : Audio Coding 3
Расширение режима : CM (complete main)
Параметр Endianness формата : Big
Идентификатор кодека : A_AC3
Продолжительность : 1 ч. 44 м.
Вид битрейта : Постоянный
Битрейт : 192 Кбит/сек
Каналы : 2 канала
Расположение каналов : Front: L R
Частота : 48,0 КГц
Частота кадров : 31,250 кадров/сек (1536 spf)
Метод сжатия : С потерями
Размер потока : 144 Мбайт (1%)
Заголовок : Профессиональный двухголосый (Екатеринбург Арт)
Язык : Russian
Default : Нет
Forced : Нет
Аудио #4
Идентификатор : 5
Формат : AC-3
Формат/Информация : Audio Coding 3
Расширение режима : CM (complete main)
Параметр Endianness формата : Big
Идентификатор кодека : A_AC3
Продолжительность : 1 ч. 44 м.
Вид битрейта : Постоянный
Битрейт : 192 Кбит/сек
Каналы : 2 канала
Расположение каналов : Front: L R
Частота : 48,0 КГц
Частота кадров : 31,250 кадров/сек (1536 spf)
Метод сжатия : С потерями
Размер потока : 144 Мбайт (1%)
Заголовок : Авторский (Андрей Гаврилов)
Язык : Russian
Default : Нет
Forced : Нет
Аудио #5
Идентификатор : 6
Формат : AC-3
Формат/Информация : Audio Coding 3
Расширение режима : CM (complete main)
Параметр Endianness формата : Big
Идентификатор кодека : A_AC3
Продолжительность : 1 ч. 44 м.
Вид битрейта : Постоянный
Битрейт : 384 Кбит/сек
Каналы : 2 канала
Расположение каналов : Front: L R
Частота : 48,0 КГц
Частота кадров : 31,250 кадров/сек (1536 spf)
Метод сжатия : С потерями
Размер потока : 288 Мбайт (2%)
Язык : English
Default : Нет
Forced : Нет
Текст #1
Идентификатор : 7
Формат : UTF-8
Идентификатор кодека : S_TEXT/UTF8
Идентификатор кодека/Информация : UTF-8 Plain Text
Продолжительность : 7 м. 50 с.
Битрейт : 43 бит/сек
Count of elements : 47
Размер потока : 2,48 Кбайт (0%)
Заголовок : отсутствующие фрагменты на перевод Гаврилова
Язык : Russian
Default : Да
Forced : Нет
Текст #2
Идентификатор : 8
Формат : UTF-8
Идентификатор кодека : S_TEXT/UTF8
Идентификатор кодека/Информация : UTF-8 Plain Text
Продолжительность : 1 ч. 39 м.
Битрейт : 96 бит/сек
Count of elements : 1120
Размер потока : 70,4 Кбайт (0%)
Заголовок : Полные
Язык : Russian
Default : Нет
Forced : Нет
Текст #3
Идентификатор : 9
Формат : UTF-8
Идентификатор кодека : S_TEXT/UTF8
Идентификатор кодека/Информация : UTF-8 Plain Text
Продолжительность : 1 ч. 37 м.
Битрейт : 55 бит/сек
Count of elements : 1089
Размер потока : 39,1 Кбайт (0%)
Язык : English
Default : Нет
Forced : Нет
Меню
00:00:00.000 : :Лимонная церемония
00:01:34.508 : :Семья
00:08:53.324 : :Грэйс
00:16:36.007 : :Казино
00:20:24.011 : :Наркотик
00:29:14.003 : :Абракадабра
00:32:59.858 : :Жемчужина
00:39:54.817 : :Погоня
00:42:37.692 : :"Дэйв мертв"
00:59:23.114 : :Соблазнение
01:05:46.000 : :"Я за вами наблюдаю"
01:10:01.010 : :Обыск
01:18:19.667 : :Разговор с мистером Шапиро
01:24:30.124 : :Ни доказательств, ни свидетелей
01:32:53.070 : :Франция - хорошая страна
01:42:46.225 : :Заключительные титры

Скриншоты

[Профиль] [ЛС]
Показать сообщения:    

Текущее время: Сегодня 14:26

Часовой пояс: GMT



Вы не можете начинать темы
Вы не можете отвечать на сообщения
Вы не можете редактировать свои сообщения
Вы не можете удалять свои сообщения
Вы не можете голосовать в опросах
Вы не можете прикреплять файлы к сообщениям
Вы не можете скачивать файлы