Атака Титанов. Фильм первый: Жестокий мир / Shingeki no kyojin: Attack on Titan (2015) WEB-DLRip | iTunes

 
Автор Сообщение

BOSS ®

Пол:

Стаж: 2 года 1 месяц

Сообщений: 3738

Откуда: ODESSA



Награды: 20 (Подробнее)

Mega Seeder 2 (Количество: 1) Top Seeder 3 (Количество: 1) Top Releaser 4 (Количество: 1)
Торрент-статистика

Создавать темы 01-Окт-2015 05:04

[Цитировать]

Информация о фильме
Название: Атака Титанов. Фильм первый: Жестокий мир
Оригинальное название: Shingeki no kyojin
Год выпуска: 2015
Жанр: Ужасы, фэнтези, боевик, драма, приключения
Режиссер: Синдзи Хигути
В ролях: Харума Миура, Кико Мидзухара, Каната Хонго, Сатоми Исихара, Нанами Сакураба, Такахиро Миура, Хироки Хасегава, Аямэ Мисаки, Пьер Таки, Дзюн Кунимура
О фильме: Вместо прогресса человечество оказалось отброшено назад появлением расы гигантов. Огромные гуманоиды не обладали ни речью, ни разумом, но при этом пожирали людей, как чипсы, а обычное оружие уровня XIX века оказалось бессильно. Остатки рода людского смогли выжить лишь за циклопическими стенами, которые тройным кольцом опоясали последние поля, города и деревни. Затишье продолжалось сто лет, за это время люди успокоились, армия была сокращена, а городская стража превратилась в дармоедов. Боеспособность сохранил лишь Разведкорпус — но кому нужны самоубийцы, что постоянно рискуют жизнью за стенами, когда можно спокойно сидеть за каменным забором?


Выпущено: Япония / Kôdansha, Licri, Nikkatsu See
Продолжительность: 01:38:27
Озвучивание: Дублированное [iTunes]
Файл
Формат: AVI (XviD)
Качество: WEB-DLRip
Видео: 851 kb/s, 720x304
Аудио: AC3, 128 kb/s (2 ch)
Размер: 745 MB
Скачать: Сэмпл-

Media Info

General
Complete name : ataka.T1taH0B.2015.D.WEB-DLRip.700MB.avi
Format : AVI
Format/Info : Audio Video Interleave
File size : 699 MiB
Duration : 1h 38mn
Overall bit rate : 992 Kbps
Writing application : VirtualDubMod 1.5.10.3 | www.virtualdub-fr.org || (build 2550/release)
Writing library : VirtualDubMod build 2550/release
Video
ID : 0
Format : MPEG-4 Visual
Format profile : Advanced Simple@L5
Format settings, BVOP : 2
Format settings, QPel : No
Format settings, GMC : No warppoints
Format settings, Matrix : Default (MPEG)
Codec ID : XVID
Codec ID/Hint : XviD
Duration : 1h 38mn
Bit rate : 855 Kbps
Width : 720 pixels
Height : 304 pixels
Display aspect ratio : 2.35:1
Frame rate : 24.000 fps
Color space : YUV
Chroma subsampling : 4:2:0
Bit depth : 8 bits
Scan type : Progressive
Compression mode : Lossy
Bits/(Pixel*Frame) : 0.163
Stream size : 602 MiB (86%)
Writing library : XviD 1.2.1 (UTC 2008-12-04)
Audio
ID : 1
Format : AC-3
Format/Info : Audio Coding 3
Mode extension : CM (complete main)
Format settings, Endianness : Big
Codec ID : 2000
Duration : 1h 38mn
Bit rate mode : Constant
Bit rate : 128 Kbps
Channel(s) : 2 channels
Channel positions : Front: L R
Sampling rate : 48.0 KHz
Compression mode : Lossy
Stream size : 90.1 MiB (13%)
Alignment : Split accross interleaves
Interleave, duration : 42 ms (1.00 video frame)
Interleave, preload duration : 500 ms

Скриншоты | повтор:

- -
[Профиль] [ЛС]
Кто просматривает тему:

Форум Тема Автор Размер
Фильмы 2016 года Атака зомби в кожаных штанах / Attack of the Lederhosenzombies (2016) HDRip | L1 BOSS 1.37 GB
Фильмы (HD Rips | 720p, 1080p) Атака на Пёрл-Харбор / Rengô kantai shirei chôkan: Yamamoto Isoroku (2011) BDRip 1080p Russian Mafia 16.77 GB
Фильмы (HD Rips | 720p, 1080p) Атака на Пёрл-Харбор / Rengô kantai shirei chôkan: Yamamoto Isoroku (2011) BDRip 720p Russian Mafia 8.62 GB
Фильмы 2011 года Атака на Пёрл-Харбор / Rengô kantai shirei chôkan: Yamamoto Isoroku (2011) BDRip | Лицензия Russian Mafia 2.91 GB
Фильмы 2011 года Атака на Пёрл-Харбор / Rengô kantai shirei chôkan: Yamamoto Isoroku (2011) BDRip-AVC от potroks | D, A Russian Mafia 2.19 GB
Фильмы 2015 года Атака титанов. Фильм второй: Конец света / Shingeki no kyojin endo obu za wârudo (2015) HDRip от MegaPeer | iTunes достали все 742 MB
Фильмы (HD Rips | 720p, 1080p) Атака титанов. Фильм второй: Конец света / Shingeki no kyojin endo obu za wârudo (2015) WEB-DL 1080p | iTunes достали все 2.92 GB
Фильмы 2015 года Атака титанов. Фильм второй: Конец света / Shingeki no kyojin endo obu za wârudo (2015) WEB-DLRip-AVC | iTunes достали все 1.58 GB
Показать сообщения:    

Текущее время: Сегодня 22:18

Часовой пояс: GMT



Вы не можете начинать темы
Вы не можете отвечать на сообщения
Вы не можете редактировать свои сообщения
Вы не можете удалять свои сообщения
Вы не можете голосовать в опросах
Вы не можете прикреплять файлы к сообщениям
Вы не можете скачивать файлы