Астрал 3 / Insidious: Chapter 3 (2015) BDRip 720p | Лицензия

 
Автор Сообщение

достали все ®

Пол:

Стаж: 1 год 8 месяцев

Сообщений: 6527



Награды: 12 (Подробнее)

Mega Seeder 1 (Количество: 1) Mega Releaser 1 (Количество: 1) Mega Releaser 2 (Количество: 1)
Торрент-статистика

Создавать темы 04-Окт-2015 07:46

[Цитировать]

Информация о фильме
Название: Астрал 3
Оригинальное название: Insidious: Chapter 3
Год выпуска: 2015
Жанр: Ужасы
Выпущено: Канада, США, Automatik Entertainment, Blumhouse Productions, Entertainment One
Режиссер: Ли Уоннелл
В ролях: Стефани Скотт, Дермот Малруни, Энгус Сэмпсон, Ли Уоннелл, Лин Шэй, Тейт Берни, Майкл Рид МакКей, Стив Култер, Хейли Кийоко, Корбетт Так
О фильме: История о том, как одаренный экстрасенс Элис Рейнер неохотно соглашается использовать свои способности для установления связи с мертвыми, чтобы помочь девочке-подростку, которая стала мишенью для опасной сверхъестественной сущности.
Файл
Качество: BDRip (720p)
Видео: MPEG-4 AVC, 5705 Кбит/с, 1280x536
Аудио: Русский, английский (AC3, 6 ch, 640 Кбит/с)
Продолжительность: 01:37:20
Перевод: Дублированный [лицензия]
Субтитры: Русские, английские, украинские
Семпл

MI

Общее
Уникальный идентификатор : 213461392886160117704042420916949016522 (0xA0972B39F35C6E2681BE0E6807EADFCA)
Полное имя : D:Insidious.Chapter.3.2015.BDRip.720p.BLUEBIRD.mkv
Формат : Matroska
Версия формата : Version 2
Размер файла : 4,85 Гбайт
Продолжительность : 1 ч. 37 м.
Общий поток : 7127 Кбит/сек
Название фильма : Insidious.Chapter.3.2015.BDRip.720p.BLUEBIRD
Дата кодирования : UTC 2015-10-03 10:35:55
Программа кодирования : mkvmerge v7.9.0 ('Birds') 64bit
Библиотека кодирования : libebml v1.3.1 + libmatroska v1.4.2
Видео
Идентификатор : 1
Формат : AVC
Формат/Информация : Advanced Video Codec
Профиль формата : High@L4.1
Параметр CABAC формата : Да
Параметр ReFrames формата : 12 кадров
Идентификатор кодека : V_MPEG4/ISO/AVC
Продолжительность : 1 ч. 37 м.
Битрейт : 5705 Кбит/сек
Ширина : 1280 пикселей
Высота : 536 пикселей
Соотношение сторон : 2,40:1
Режим частоты кадров : Постоянный
Частота кадров : 23,976 кадра/сек
Цветовое пространство : YUV
Субдискретизация насыщенности : 4:2:0
Битовая глубина : 8 бит
Тип развёртки : Прогрессивная
Бит/(Пиксели*Кадры) : 0.347
Размер потока : 3,88 Гбайт (80%)
Заголовок : Insidious.Chapter.3.2015.BDRip.720p.BLUEBIRD
Библиотека кодирования : x264 core 148 r2579+50 65f745f t_mod_Custom [8-bit@all X86_64]
Настройки программы : cabac=1 / ref=12 / deblock=1:-3:-3 / analyse=0x3:0x133 / me=umh / subme=10 / psy=1 / fade_compensate=0.00 / psy_rd=1.00:0.00 / mixed_ref=1 / me_range=48 / chroma_me=1 / trellis=2 / 8x8dct=1 / cqm=0 / deadzone=21,11 / fast_pskip=1 / chroma_qp_offset=-2 / threads=8 / lookahead_threads=1 / sliced_threads=0 / nr=0 / decimate=1 / interlaced=0 / bluray_compat=0 / constrained_intra=0 / fgo=0 / bframes=9 / b_pyramid=2 / b_adapt=2 / b_bias=0 / direct=3 / weightb=1 / open_gop=0 / weightp=2 / keyint=250 / keyint_min=23 / scenecut=40 / intra_refresh=0 / rc_lookahead=150 / rc=crf / mbtree=0 / crf=14.6000 / qcomp=0.60 / qpmin=0:0:0 / qpmax=69:69:69 / qpstep=4 / vbv_maxrate=50000 / vbv_bufsize=62500 / crf_max=0.0 / nal_hrd=none / filler=0 / ip_ratio=1.35 / pb_ratio=1.20 / aq=1:0.70 / aq-sensitivity=10.00 / aq-factor=1.00:1.00:1.00 / aq2=0 / aq3=0
Язык : English
Default : Да
Forced : Нет
Аудио #1
Идентификатор : 2
Формат : AC-3
Формат/Информация : Audio Coding 3
Расширение режима : CM (complete main)
Параметр Endianness формата : Big
Идентификатор кодека : A_AC3
Продолжительность : 1 ч. 37 м.
Вид битрейта : Постоянный
Битрейт : 640 Кбит/сек
Каналы : 6 каналов
Расположение каналов : Front: L C R, Side: L R, LFE
Частота : 48,0 КГц
Метод сжатия : С потерями
Размер потока : 446 Мбайт (9%)
Заголовок : BD EUR
Язык : Russian
Default : Да
Forced : Нет
Аудио #2
Идентификатор : 3
Формат : AC-3
Формат/Информация : Audio Coding 3
Расширение режима : CM (complete main)
Параметр Endianness формата : Big
Идентификатор кодека : A_AC3
Продолжительность : 1 ч. 37 м.
Вид битрейта : Постоянный
Битрейт : 640 Кбит/сек
Каналы : 6 каналов
Расположение каналов : Front: L C R, Side: L R, LFE
Частота : 48,0 КГц
Метод сжатия : С потерями
Размер потока : 446 Мбайт (9%)
Язык : English
Default : Нет
Forced : Нет
Текст #1
Идентификатор : 4
Формат : UTF-8
Идентификатор кодека : S_TEXT/UTF8
Идентификатор кодека/Информация : UTF-8 Plain Text
Заголовок : Forced
Язык : Russian
Default : Да
Forced : Нет
Текст #2
Идентификатор : 5
Формат : UTF-8
Идентификатор кодека : S_TEXT/UTF8
Идентификатор кодека/Информация : UTF-8 Plain Text
Заголовок : Full
Язык : Russian
Default : Нет
Forced : Нет
Текст #3
Идентификатор : 6
Формат : UTF-8
Идентификатор кодека : S_TEXT/UTF8
Идентификатор кодека/Информация : UTF-8 Plain Text
Заголовок : Full
Язык : Ukrainian
Default : Нет
Forced : Нет
Текст #4
Идентификатор : 7
Формат : UTF-8
Идентификатор кодека : S_TEXT/UTF8
Идентификатор кодека/Информация : UTF-8 Plain Text
Заголовок : Full
Язык : English
Default : Нет
Forced : Нет
Текст #5
Идентификатор : 8
Формат : UTF-8
Идентификатор кодека : S_TEXT/UTF8
Идентификатор кодека/Информация : UTF-8 Plain Text
Заголовок : SDH
Язык : English
Default : Нет
Forced : Нет
Меню
00:00:00.000 : en:Chapter 1
00:11:02.620 : en:Chapter 2
00:15:10.243 : en:Chapter 3
00:20:14.380 : en:Chapter 4
00:26:15.532 : en:Chapter 5
00:33:00.979 : en:Chapter 6
00:38:09.329 : en:Chapter 7
00:41:51.134 : en:Chapter 8
00:45:27.266 : en:Chapter 9
00:49:39.894 : en:Chapter 10
00:54:36.732 : en:Chapter 11
01:01:02.450 : en:Chapter 12
01:05:06.444 : en:Chapter 13
01:11:54.769 : en:Chapter 14
01:16:33.589 : en:Chapter 15
01:27:24.239 : en:Chapter 16

Скриншоты



Релиз от: BLUEBIRD
[Профиль] [ЛС]
Показать сообщения:    

Текущее время: Сегодня 02:16

Часовой пояс: GMT



Вы не можете начинать темы
Вы не можете отвечать на сообщения
Вы не можете редактировать свои сообщения
Вы не можете удалять свои сообщения
Вы не можете голосовать в опросах
Вы не можете прикреплять файлы к сообщениям
Вы не можете скачивать файлы