Астрал 3 / Insidious: Chapter 3 (2015) WEBRip | Чистый звук

 
Автор Сообщение

достали все ®

Пол:

Стаж: 1 год 8 месяцев

Сообщений: 6611



Награды: 12 (Подробнее)

Mega Releaser 3 (Количество: 1) Mega Seeder 4 (Количество: 1) Top Releaser 4 (Количество: 1)
Торрент-статистика

Создавать темы 30-Июн-2015 05:47

[Цитировать]

Информация о фильме
Название: Астрал 3
Оригинальное название: Insidious: Chapter 3
Год выхода: 2015
Жанр: ужасы
Режиссер: Ли Уоннелл
В ролях: Стефани Скотт, Дермот Малруни, Энгус Сэмпсон, Ли Уоннелл, Лин Шэй, Тейт Берни, Майкл Рид МакКей, Стив Култер, Хейли Кийоко, Корбетт Так
О фильме: История о том, как одаренный экстрасенс Элис Рейнер неохотно соглашается использовать свои способности для установления связи с мертвыми, чтобы помочь девочке-подростку, которая стала мишенью для опасной сверхъестественной сущности.

Выпущено: Канада, США / Automatik Entertainment, Blumhouse Productions, Entertainment One
Продолжительность: 01:37:27
Озвучивание: Дублированное [Чистый звук]
Примечание: Присутствуют около 4-х минут вставок звука с TS и вшитые неотключаемые китайские субтитры.
Файл
Формат: AVI (XviD)
Качество: WEBRip
Видео: 870 kb/s, 720x304
Аудио: AC3, 128 kb/s (2 ch)
Размер: 702 MB
Скачать: Сэмпл---

Media Info

General
Complete name : C:UsersuserDesktopAstral.3.2015.D.WEBRip.700MB.avi
Format : AVI
Format/Info : Audio Video Interleave
File size : 702 MiB
Duration : 1h 37mn
Overall bit rate : 1 008 Kbps
Movie name : Astral.3.2015.Dt.WEBRip.700MB.ELEKTRI4KA.uniongang.tv
Director : Carl Gaus
Writing application : VirtualDubMod 1.5.10.3 | www.virtualdub-fr.org || (build 2550/release)
Copyright : ELEKTRI4KA&UNIONGANG
Video
ID : 0
Format : MPEG-4 Visual
Format profile : Advanced Simple@L5
Format settings, BVOP : 2
Format settings, QPel : No
Format settings, GMC : No warppoints
Format settings, Matrix : Default (MPEG)
Codec ID : XVID
Codec ID/Hint : XviD
Duration : 1h 37mn
Bit rate : 870 Kbps
Width : 720 pixels
Height : 304 pixels
Display aspect ratio : 2.35:1
Frame rate : 23.976 fps
Color space : YUV
Chroma subsampling : 4:2:0
Bit depth : 8 bits
Scan type : Progressive
Compression mode : Lossy
Bits/(Pixel*Frame) : 0.166
Stream size : 607 MiB (86%)
Writing library : XviD 1.2.1 (UTC 2008-12-04)
Audio
ID : 1
Format : MPEG Audio
Format version : Version 1
Format profile : Layer 3
Mode : Joint stereo
Mode extension : MS Stereo
Codec ID : 55
Codec ID/Hint : MP3
Duration : 1h 37mn
Bit rate mode : Constant
Bit rate : 128 Kbps
Channel(s) : 2 channels
Sampling rate : 48.0 KHz
Compression mode : Lossy
Stream size : 89.2 MiB (13%)
Alignment : Aligned on interleaves
Interleave, duration : 42 ms (1.00 video frame)
Interleave, preload duration : 504 ms
Writing library : LAME3.99r
Encoding settings : -m j -V 4 -q 2 -lowpass 17 -b 128
--- --- -

Скриншоты

-
[Профиль] [ЛС]
Показать сообщения:    

Текущее время: Сегодня 16:55

Часовой пояс: GMT



Вы не можете начинать темы
Вы не можете отвечать на сообщения
Вы не можете редактировать свои сообщения
Вы не можете удалять свои сообщения
Вы не можете голосовать в опросах
Вы не можете прикреплять файлы к сообщениям
Вы не можете скачивать файлы