Астерикс на Олимпийских играх / Asterix aux jeux olympiques (Фредерик Форестье / Frederic Forestier, Тома Лангманн / Thomas Langmann) [2008, Германия, Франция, Италия, фэнтези, комедия, приключения, семейный, HDRip] Dub

 
Автор Сообщение

painkiller ®

Стаж: 2 года 3 месяца

Сообщений: 582



Награды: Нет

Торрент-статистика

Создавать темы 14-Авг-2014 13:00

[Цитировать]

Астерикс на Олимпийских играх / Asterix aux jeux olympiques- Страна: Германия, Франция, Италия
Жанр: фэнтези, комедия, приключения, семейный
Год выпуска: 2008
Продолжительность: 01:57:14
Перевод:
  • Профессиональный (дублированный)
Cубтитры: нет-Режиссер: Фредерик Форестье / Frederic Forestier, Тома Лангманн / Thomas Langmann
В ролях: Жерар Депардье (Obelix), Кловис Корнийяк (Asterix), Бенуа Пульворд (Brutus), Ален Делон (Jules Cesar), Ванесса Эсслер (Princesse Irina), Франк Дубоск (Assurancetourix), Хосе Гарсия (Couverdepus), Стефан Руссо (Alafolix), Жан-Пьер Кассель (Panoramix), Эли Семун (Omega).
Описание: 50 лет до Рождества Христова. Вся Галлия под властью Римской Империи. Но не стоит огорчаться: одна деревня продолжает героическое сопротивление. Ведь ее жители уверены в собственной непобедимости. Уже несколько месяцев сердце Полюбвикса бьется только ради греческой принцессы Ирины. Но, увы, он не единственный претендент на ее руку. Большая политика предназначила Ирину в жены Бруту, сыну Юлия Цезаря. Чтобы оттянуть нежеланный брак и дать шанс Полюбвиксу Ирина объявляет, что выйдет замуж за победителя Олимпийских Игр. Итак, Полюбвикс приступает к тренировкам под руководством тех, кто быстрее, выше, сильнее, и, разумеется, умнее всех — Астерикса и Обеликса. А хитрый Брут — к разработке коварного плана.-Качество видео: HDRip (источник: BDRip / 720p)
Формат видео: AVI | Sample
Видео: 720x304 (2.37:1), 24.000 fps, XviD build 73 ~1325 kbps avg, 0.25 bit/pixel
Аудио: 48 kHz, AC3 Dolby Digital, 3/2 (L,C,R,l,r) + LFE ch, 448.00 kbps avg
Медиаинфо">

Скриншоты Медиаинфо


Общее
Формат : AVI
Формат/Информация : Audio Video Interleave
Размер файла : 1,46 Гбайт
Продолжительность : 1 ч. 57 м.
Общий поток : 1782 Кбит/сек
Программа кодирования : VirtualDubMod 1.5.10.3 | www.virtualdub-fr.org || (build 2550/release)
Библиотека кодирования : VirtualDubMod build 2550/release
Видео
Идентификатор : 0
Формат : MPEG-4 Visual
Профиль формата : Advanced Simple@L5
Параметр BVOP формата : 1
Параметр QPel формата : Нет
Параметр GMC формата : Без точки перехода
Параметр матрицы формата : Выборочная
Идентификатор кодека : XVID
Идентификатор кодека/Подсказка : XviD
Продолжительность : 1 ч. 57 м.
Битрейт : 1325 Кбит/сек
Ширина : 720 пикселей
Высота : 304 пикселя
Соотношение сторон : 2,35:1
Частота кадров : 24,000 кадра/сек
Цветовое пространство : YUV
Субдискретизация насыщенности : 4:2:0
Битовая глубина : 8 бит
Тип развёртки : Прогрессивная
Метод сжатия : С потерями
Бит/(Пиксели*Кадры) : 0.252
Размер потока : 1,09 Гбайт (74%)
Библиотека кодирования : XviD 73
Аудио
Идентификатор : 1
Формат : AC-3
Формат/Информация : Audio Coding 3
Расширение режима : CM (complete main)
Параметр Endianness формата : Big
Идентификатор кодека : 2000
Продолжительность : 1 ч. 57 м.
Вид битрейта : Постоянный
Битрейт : 448 Кбит/сек
Каналы : 6 каналов
Расположение каналов : Front: L C R, Side: L R, LFE
Частота : 48,0 КГц
Битовая глубина : 16 бит
Метод сжатия : С потерями
Размер потока : 375 Мбайт (25%)
Выравнивание : Разделение по промежуткам
Продолжительность промежутка : 42 мс. (1,00 видеокадр)
Время предзагрузки промежутка : 500 мс.
[Профиль] [ЛС]

Создавать темы 06-Авг-2015 23:14 (спустя 11 месяцев 23 дня)

Топик был перенесен из форума Фильмы до 2014 года в форум Фильмы до 2012 года
sergej644
 

Создавать темы 12-Июн-2016 08:51 (спустя 1 год 9 месяцев)

Топик был перенесен из форума Фильмы 2011 года в форум Фильмы 2006-2008 года
Russian Mafia
 
Показать сообщения:    

Текущее время: Сегодня 17:59

Часовой пояс: GMT



Вы не можете начинать темы
Вы не можете отвечать на сообщения
Вы не можете редактировать свои сообщения
Вы не можете удалять свои сообщения
Вы не можете голосовать в опросах
Вы не можете прикреплять файлы к сообщениям
Вы не можете скачивать файлы