Астерикс и Обеликс: Миссия Клеопатра / Astérix & Obélix: Mission Cléopâtre / (2002) BDRip 720p от NNNB | 60 fps

 
Автор Сообщение

sergej644 ®

Пол:

Стаж: 4 года 11 месяцев

Сообщений: 6040

Откуда: Soviet Union



Награды: Нет

Торрент-статистика

Создавать темы 08-Окт-2014 17:34

[Цитировать]

--Астерикс и Обеликс: Миссия Клеопатра / Astérix & Obélix: Mission Cléopâtre- Информация о фильме
Русское название: Астерикс и Обеликс: Миссия Клеопатра
Оригинальное название: Astérix & Obélix: Mission Cléopâtre
Год выхода: 2002
Жанр: Фэнтези, комедия, приключения, семейный
Режиссер: Ален Шаба
Выпущено: Германия, Франция
Продолжительность: 01:48:01
Перевод: Дублированный
В ролях: Жерар Депардье, Кристиан Клавье, Жамель Деббуз, Моника Беллуччи, Ален Шаба, Клод Риш, Жерар Дармон, Эдуард Баэр, Дьедонне, Мусс Диуф-Сюжет фильма
Великая Клеопатра заключила пари с римским императором Юлием Цезарем о том, что ее подданные смогут всего за три месяца построить грандиозный золотой дворец. Этой опасной чести был удостоен архитектор Нумеробис, которого - в случае неудачи - должны растерзать крокодилы.
Нумеробис вызывает на помощь своего старого друга - друида Панорамикса с зельем, дарующим сверхъестественную силу. А веселые, находчивые Астерикс и Обеликс сопровождают старца в Египет, чтобы помешать проискам Цезаря, не желающего проигрывать Клеопатре.-Файл
Качество: BDRip 720p (исходник Blu-ray Disc Remux)
Видео: 1280x544, 5643 Кбит/сек, 60.000 кадр/сек, AVC, x264, High@L4.1, 2.35:1, 0.135 Бит/[Пиксели*Кадры]
Аудио 1: AC-3, 384 Кбит/сек, 6 канала(ов), 48,0 КГц - Дублированный / Русский
Аудио 2: AC-3, 640 Кбит/сек, 6 канала(ов), 48,0 КГц - Оригинал / Французский
Субтитры: Русские | Полные, Французские | Полные
Чаптеры (Главы): Есть-- -

MediaInfo

Format : Matroska
Format version : Version 2
File size : 5.02 GiB
Duration : 1h 48mn
Overall bit rate : 6 659 Kbps
Movie name : Астерикс и Обеликс: Миссия Клеопатра.(2002).BDRip.720p.[envy].[60fps]
Encoded date : UTC 2014-04-16 11:47:34
Writing application : mkvmerge v5.8.0 ('No Sleep / Pillow') built on Sep 2 2012 15:37:04
Writing library : libebml v1.2.3 + libmatroska v1.3.0
Video
ID : 1
Format : AVC
Format/Info : Advanced Video Codec
Format profile : High@L4.1
Format settings, CABAC : Yes
Format settings, ReFrames : 9 frames
Codec ID : V_MPEG4/ISO/AVC
Duration : 1h 48mn
Bit rate : 5 643 Kbps
Width : 1 280 pixels
Height : 544 pixels
Display aspect ratio : 2.35:1
Frame rate mode : Constant
Frame rate : 60.000 fps
Color space : YUV
Chroma subsampling : 4:2:0
Bit depth : 8 bits
Scan type : Progressive
Bits/(Pixel*Frame) : 0.135
Stream size : 4.15 GiB (83%)
Title : Астерикс и Обеликс: Миссия Клеопатра.(2002).BDRip.720p.[envy].[60fps]
Writing library : x264 core 130 r2273 b3065e6
Encoding settings : cabac=1 / ref=9 / deblock=1:-3:-2 / analyse=0x3:0x133 / me=umh / subme=11 / psy=1 / psy_rd=1.00:0.10 / mixed_ref=1 / me_range=32 / chroma_me=1 / trellis=2 / 8x8dct=1 / cqm=0 / deadzone=21,11 / fast_pskip=0 / chroma_qp_offset=-3 / threads=12 / lookahead_threads=1 / sliced_threads=0 / nr=0 / decimate=1 / interlaced=0 / bluray_compat=0 / constrained_intra=0 / bframes=6 / b_pyramid=2 / b_adapt=2 / b_bias=0 / direct=3 / weightb=1 / open_gop=0 / weightp=2 / keyint=250 / keyint_min=25 / scenecut=40 / intra_refresh=0 / rc=2pass / mbtree=0 / bitrate=5643 / ratetol=1.0 / qcomp=0.60 / qpmin=0 / qpmax=69 / qpstep=4 / cplxblur=20.0 / qblur=0.5 / ip_ratio=1.40 / pb_ratio=1.30 / aq=2:0.80
Language : English
Default : Yes
Forced : No
Audio #1
ID : 2
Format : AC-3
Format/Info : Audio Coding 3
Mode extension : CM (complete main)
Format settings, Endianness : Big
Codec ID : A_AC3
Duration : 1h 48mn
Bit rate mode : Constant
Bit rate : 384 Kbps
Channel count : 6 channels
Channel positions : Front: L C R, Side: L R, LFE
Sampling rate : 48.0 KHz
Bit depth : 16 bits
Compression mode : Lossy
Stream size : 297 MiB (6%)
Title : Dub
Language : Russian
Default : Yes
Forced : No
Audio #2
ID : 3
Format : AC-3
Format/Info : Audio Coding 3
Mode extension : CM (complete main)
Format settings, Endianness : Big
Codec ID : A_AC3
Duration : 1h 48mn
Bit rate mode : Constant
Bit rate : 640 Kbps
Channel count : 6 channels
Channel positions : Front: L C R, Side: L R, LFE
Sampling rate : 48.0 KHz
Bit depth : 16 bits
Compression mode : Lossy
Stream size : 494 MiB (10%)
Title : Fre
Language : French
Default : No
Forced : No
Text #1
ID : 4
Format : UTF-8
Codec ID : S_TEXT/UTF8
Codec ID/Info : UTF-8 Plain Text
Title : full
Language : Russian
Default : No
Forced : No
Text #2
ID : 5
Format : UTF-8
Codec ID : S_TEXT/UTF8
Codec ID/Info : UTF-8 Plain Text
Title : full
Language : English
Default : No
Forced : No
Menu
00:00:00.000 : :Chapter 01
00:04:27.375 : :Chapter 02
00:09:58.290 : :Chapter 03
00:13:53.665 : :Chapter 04
00:19:14.125 : :Chapter 05
00:24:49.375 : :Chapter 06
00:31:04.083 : :Chapter 07
00:35:07.625 : :Chapter 08
00:38:57.833 : :Chapter 09
00:42:57.083 : :Chapter 10
00:46:00.625 : :Chapter 11
00:51:45.458 : :Chapter 12
00:58:06.375 : :Chapter 13
01:02:52.750 : :Chapter 14
01:08:53.457 : :Chapter 15
01:13:41.291 : :Chapter 16
01:18:28.791 : :Chapter 17
01:23:42.416 : :Chapter 18
01:30:48.832 : :Chapter 19
01:36:48.500 : :Chapter 20
01:40:47.125 : :Chapter 21
01:42:14.458 : :Chapter 22
-
[Профиль] [ЛС]
Показать сообщения:    

Текущее время: Сегодня 04:46

Часовой пояс: GMT



Вы не можете начинать темы
Вы не можете отвечать на сообщения
Вы не можете редактировать свои сообщения
Вы не можете удалять свои сообщения
Вы не можете голосовать в опросах
Вы не можете прикреплять файлы к сообщениям
Вы не можете скачивать файлы