Астерикс и Обеликс: Квадрология / Asterix and Obelix: Quadrilogy (1999-2012) BDRip-AVC от R.G. HD-Films | 60 fps

 
Автор Сообщение

BOSS ®

Пол:

Стаж: 2 года 1 месяц

Сообщений: 3726

Откуда: ODESSA



Награды: 20 (Подробнее)

Top Releaser 2 (Количество: 1) Mega Seeder 1 (Количество: 1) Top Keeper 4 (Количество: 1)
Торрент-статистика

Создавать темы 29-Авг-2015 11:39

[Цитировать]

Астерикс и Обеликс: против Цезаря

-Название: Астерикс и Обеликс: против Цезаря
Оригинальное название: Asterix & Obelix contre Cesar
Год выпуска: 1999
Страна: Франция, Германия, Италия
Жанр: фэнтези, комедия, приключения, семейный
Продолжительность: 01:45:32
Перевод: Дубляж
Субтитры: английские, русские-Режиссер: Клод Зиди / Claude Zidi-В ролях: Кристиан Клавье (Asterix), Жерар Депардье (Obelix), Роберто Бениньи (Lucius Detritus (Tullius Destructivus / Catastrofus)), Мишель Галабрю (Abraracourcix (Majestix)), Клод Пьеплю (Panoramix (Miraculix) / Getafix), Даниэль Прево (Prolix (Lugnix / Xynix)), Пьер Палмаде (Assurancetourix (Troubadix)), Летиция Каста (Falbala), Ариель Домбаль (Mme Agecanonix (Frau Methusalix)), Сим (Agecanonix (Methusalix)), Марианна Зёгебрехт (Bonnemine (Gutemine)), Готфрид Йон (Jules Cesar (Julius Caesar))-Описание:
В 50-м году до нашей эры римский император Юлий Цезарь покорил Галлию. Только жители одной маленькой деревеньки отказались платить налоги римлянам. Ведь у них есть волшебный напиток, с помощью которого неразлучные друзья Астерикс и Обеликс становятся супергероями, способными сразиться со всей Римской империей...-Рейтинг

imdb.com: 5.80 (28 386)-Качество: BDRip-AVC / 60fps
Формат: MKV
Видео кодек: AVC
Аудио кодек: AC3
Видео: AVC, 1024x432 (2.35:1), 4606 kbps, 60 fps, 0,174 bpp
Аудио: русский / AC3 / 5.1 / 48 kHz / 640 kbps / 16 bit
Навигация по главам: есть- -MI
General
Unique ID : 227063494778469077627579700232572469489 (0xAAD2D6A0899540ABBDDDF5EFBBBD80F1)
Complete name : E:КодировкаРаздачаастерикс и обеликсАстерикс и Обеликс - против цезаря 60fps (1) (1).mkv
Format : Matroska
Format version : Version 4 / Version 2
File size : 3.87 GiB
Duration : 1h 45mn
Overall bit rate : 5 249 Kbps
Encoded date : UTC 2015-08-25 13:54:18
Writing application : mkvmerge v7.0.0 ('Where We Going') 64bit built on Jun 9 2014 15:16:27
Writing library : libebml v1.3.0 + libmatroska v1.4.1
Video
ID : 2
Format : AVC
Format/Info : Advanced Video Codec
Format profile : High@L4.1
Format settings, CABAC : Yes
Format settings, ReFrames : 9 frames
Codec ID : V_MPEG4/ISO/AVC
Duration : 1h 45mn
Bit rate : 4 606 Kbps
Width : 1 024 pixels
Height : 432 pixels
Display aspect ratio : 2.35:1
Frame rate : 60.000 fps
Color space : YUV
Chroma subsampling : 4:2:0
Bit depth : 8 bits
Scan type : Progressive
Bits/(Pixel*Frame) : 0.174
Stream size : 3.32 GiB (86%)
Writing library : x264 core 146 r2538 121396c
Encoding settings : cabac=1 / ref=9 / deblock=1:0:0 / analyse=0x3:0x113 / me=umh / subme=11 / psy=1 / psy_rd=1.00:0.00 / mixed_ref=1 / me_range=32 / chroma_me=1 / trellis=2 / 8x8dct=1 / cqm=0 / deadzone=21,11 / fast_pskip=1 / chroma_qp_offset=-2 / threads=12 / lookahead_threads=3 / sliced_threads=0 / nr=0 / decimate=1 / interlaced=0 / bluray_compat=0 / constrained_intra=0 / bframes=16 / b_pyramid=2 / b_adapt=2 / b_bias=0 / direct=1 / weightb=1 / open_gop=0 / weightp=2 / keyint=250 / keyint_min=25 / scenecut=40 / intra_refresh=0 / rc=2pass / mbtree=0 / bitrate=4606 / ratetol=1.0 / qcomp=0.60 / qpmin=0 / qpmax=69 / qpstep=4 / cplxblur=20.0 / qblur=0.5 / ip_ratio=1.40 / pb_ratio=1.30 / aq=1:1.00
Language : English
Default : Yes
Forced : No
Audio
ID : 1
Format : AC-3
Format/Info : Audio Coding 3
Mode extension : CM (complete main)
Codec ID : A_AC3
Duration : 1h 45mn
Bit rate mode : Constant
Bit rate : 640 Kbps
Channel(s) : 6 channels
Channel positions : Front: L C R, Side: L R, LFE
Sampling rate : 48.0 KHz
Bit depth : 16 bits
Compression mode : Lossy
Stream size : 483 MiB (12%)
Title : Дубляж
Language : Russian
Default : Yes
Forced : No
Text #1
ID : 3
Format : UTF-8
Codec ID : S_TEXT/UTF8
Codec ID/Info : UTF-8 Plain Text
Title : English
Language : English
Default : No
Forced : No
Text #2
ID : 4
Format : UTF-8
Codec ID : S_TEXT/UTF8
Codec ID/Info : UTF-8 Plain Text
Title : Ressian
Language : Russian
Default : Yes
Forced : No
Text #3
ID : 5
Format : UTF-8
Codec ID : S_TEXT/UTF8
Codec ID/Info : UTF-8 Plain Text
Title : Russian
Language : Russian
Default : No
Forced : No
Menu
00:00:00.000 : en:Chapter 1
00:04:59.046 : en:Chapter 2
00:08:29.059 : en:Chapter 3
00:18:01.045 : en:Chapter 4
00:28:17.069 : en:Chapter 5
00:37:58.052 : en:Chapter 6
00:45:36.040 : en:Chapter 7
00:53:28.024 : en:Chapter 8
01:01:52.041 : en:Chapter 9
01:09:29.070 : en:Chapter 10
01:17:56.096 : en:Chapter 11
01:21:28.088 : en:Chapter 12
01:24:40.045 : en:Chapter 13
01:30:11.036 : en:Chapter 14
01:38:49.038 : en:Chapter 15
01:45:30.036 : en:Chapter 16

Скриншоты

Астерикс и Обеликс: Миссия Клеопатра

-Название: Астерикс и Обеликс: Миссия Клеопатра
Оригинальное название: Asterix & Obelix: Mission Cleopatre
Год выпуска: 2001
Страна: Франция, Германия
Жанр: фэнтези, комедия, приключения, семейный
Продолжительность: 01:48:01
Перевод: Дубляж
Субтитры: русские, английские-Режиссер: Ален Шаба / Alain Chabat-В ролях: Жерар Депардье (Obelix), Кристиан Клавье (Asterix), Жамель Деббуз (Numerobis / Edifis), Моника Беллуччи (Cleopatre), Ален Шаба (Jules Cesar (Julius Caesar)), Клод Риш (Panoramix (Miraculix) / Getafix), Жерар Дармон (Amonbofis (Pyradonis)), Эдуард Баэр (Otis), Дьедонне (Caius Ceplus), Мусс Диуф (Baba, la vigie des pirates), Марина Фоис (Sucettalanis), Бернар Фарси (Barbe-Rouge le pirate)-Описание:
Великая Клеопатра заключила пари с римским императором Юлием Цезарем о том, что ее подданные смогут всего за три месяца построить грандиозный золотой дворец. Этой опасной чести был удостоен архитектор Нумеробис, которого - в случае неудачи - должны растерзать крокодилы.
Нумеробис вызывает на помощь своего старого друга - друида Панорамикса с зельем, дарующим сверхъестественную силу. А веселые, находчивые Астерикс и Обеликс сопровождают старца в Египет, чтобы помешать проискам Цезаря, не желающего проигрывать Клеопатре.-Рейтинг

imdb.com: 6.60 (34 427)
MPAA: PG - Рекомендуется присутствие родителей-Качество: BDRip-AVC / 60fps
Формат: MKV
Видео кодек: AVC
Аудио кодек: AC3
Видео: AVC, 1024x432 (2.35:1), 4525 kbps, 59,997 fps, 0,170 bpp
Аудио: русский / AC3 / 5.1 / 48 kHz / 384 kbps / 16 bit
Навигация по главам: есть- -MI
General
Unique ID : 203773461970271659845242595824779415807 (0x994D575AB7DC66B9B1938F0561EC50FF)
Complete name : E:КодировкаРаздачаастерикс и обеликсАстерикс и Обеликс - миссия клеопатра 60fps.mkv
Format : Matroska
Format version : Version 4 / Version 2
File size : 3.71 GiB
Duration : 1h 48mn
Overall bit rate : 4 912 Kbps
Encoded date : UTC 2015-08-23 03:38:15
Writing application : mkvmerge v7.0.0 ('Where We Going') 64bit built on Jun 9 2014 15:16:27
Writing library : libebml v1.3.0 + libmatroska v1.4.1
Video
ID : 1
Format : AVC
Format/Info : Advanced Video Codec
Format profile : High@L4.1
Format settings, CABAC : Yes
Format settings, ReFrames : 11 frames
Codec ID : V_MPEG4/ISO/AVC
Duration : 1h 48mn
Bit rate : 4 525 Kbps
Width : 1 024 pixels
Height : 432 pixels
Display aspect ratio : 2.35:1
Frame rate : 59.997 fps
Color space : YUV
Chroma subsampling : 4:2:0
Bit depth : 8 bits
Scan type : Progressive
Bits/(Pixel*Frame) : 0.170
Stream size : 3.34 GiB (90%)
Writing library : x264 core 146 r2538 121396c
Encoding settings : cabac=1 / ref=11 / deblock=1:0:0 / analyse=0x3:0x113 / me=umh / subme=11 / psy=1 / psy_rd=1.00:0.00 / mixed_ref=1 / me_range=32 / chroma_me=1 / trellis=2 / 8x8dct=1 / cqm=0 / deadzone=21,11 / fast_pskip=1 / chroma_qp_offset=-2 / threads=12 / lookahead_threads=1 / sliced_threads=0 / nr=0 / decimate=1 / interlaced=0 / bluray_compat=0 / constrained_intra=0 / bframes=3 / b_pyramid=2 / b_adapt=2 / b_bias=0 / direct=1 / weightb=1 / open_gop=0 / weightp=2 / keyint=250 / keyint_min=25 / scenecut=40 / intra_refresh=0 / rc_lookahead=40 / rc=2pass / mbtree=1 / bitrate=4525 / ratetol=1.0 / qcomp=0.60 / qpmin=0 / qpmax=69 / qpstep=4 / cplxblur=20.0 / qblur=0.5 / ip_ratio=1.40 / aq=1:1.00
Language : English
Default : Yes
Forced : No
Audio
ID : 2
Format : AC-3
Format/Info : Audio Coding 3
Mode extension : CM (complete main)
Codec ID : A_AC3
Duration : 1h 48mn
Bit rate mode : Constant
Bit rate : 384 Kbps
Channel(s) : 6 channels
Channel positions : Front: L C R, Side: L R, LFE
Sampling rate : 48.0 KHz
Bit depth : 16 bits
Compression mode : Lossy
Stream size : 297 MiB (8%)
Title : Дубляж
Language : Russian
Default : Yes
Forced : No
Text #1
ID : 3
Format : UTF-8
Codec ID : S_TEXT/UTF8
Codec ID/Info : UTF-8 Plain Text
Language : Russian
Default : No
Forced : No
Text #2
ID : 4
Format : UTF-8
Codec ID : S_TEXT/UTF8
Codec ID/Info : UTF-8 Plain Text
Language : Russian
Default : No
Forced : No
Text #3
ID : 5
Format : UTF-8
Codec ID : S_TEXT/UTF8
Codec ID/Info : UTF-8 Plain Text
Language : English
Default : No
Forced : No
Menu
00:00:00.000 : en:Chapter 1
00:04:27.037 : en:Chapter 2
00:09:58.029 : en:Chapter 3
00:13:53.066 : en:Chapter 4
00:19:14.012 : en:Chapter 5
00:24:49.037 : en:Chapter 6
00:31:04.008 : en:Chapter 7
00:35:07.062 : en:Chapter 8
00:38:57.083 : en:Chapter 9
00:42:57.008 : en:Chapter 10
00:46:00.062 : en:Chapter 11
00:51:45.045 : en:Chapter 12
00:58:06.037 : en:Chapter 13
01:02:52.075 : en:Chapter 14
01:08:53.045 : en:Chapter 15
01:13:41.029 : en:Chapter 16
01:18:28.079 : en:Chapter 17
01:23:42.041 : en:Chapter 18
01:30:48.083 : en:Chapter 19
01:36:48.050 : en:Chapter 20
01:40:47.012 : en:Chapter 21
01:42:14.045 : en:Chapter 22

Скриншоты

Астерикс на Олимпийских играх

-Название: Астерикс на Олимпийских играх
Оригинальное название: Asterix aux jeux olympiques
Год выпуска: 2008
Страна: Франция, Германия, Испания, Италия, Бельгия
Жанр: фэнтези, комедия, приключения, семейный
Продолжительность: 01:57:14
Перевод: Дубляж
Субтитры: русские, английские-Режиссер: Фредерик Форестье / Frederic Forestier, Тома Лангманн / Thomas Langmann-В ролях: Жерар Депардье (Obelix), Кловис Корнийяк (Asterix), Бенуа Пульворд (Brutus), Ален Делон (Jules Cesar), Ванесса Эсслер (Princesse Irina), Франк Дюбоск (Assurancetourix), Хосе Гарсия (Couverdepus), Стефан Руссо (Alafolix), Жан-Пьер Кассель (Panoramix), Эли Семун (Omega), Александр Астье (Mordicus), Сантьяго Сегура (Docteurmabus)-Описание:
50 лет до Рождества Христова. Вся Галлия под властью Римской Империи. Но не стоит огорчаться: одна деревня продолжает героическое сопротивление. Ведь ее жители уверены в собственной непобедимости.
Уже несколько месяцев сердце Полюбвикса бьется только ради греческой принцессы Ирины. Но, увы, он не единственный претендент на ее руку. Большая политика предназначила Ирину в жены Бруту, сыну Юлия Цезаря. Чтобы оттянуть нежеланный брак и дать шанс Полюбвиксу Ирина объявляет, что выйдет замуж за победителя Олимпийских Игр. Итак, Полюбвикс приступает к тренировкам под руководством тех, кто быстрее, выше, сильнее, и, разумеется, умнее всех - Астерикса и Обеликса. А хитрый Брут - к разработке коварного плана.-Рейтинг

imdb.com: 5.00 (18 633)-Качество: BDRip-AVC / 60fps
Формат: MKV
Видео кодек: AVC
Аудио кодек: AC3
Видео: AVC, 1024x432 (2.35:1), 4127 kbps, 59,997 fps, 0,155 bpp
Аудио: русский / AC3 / 5.1 / 48 kHz / 640 kbps / 16 bit - -MI
General
Unique ID : 246856399994014238198408819941570870750 (0xB9B6D0328AC3EA30B14C7CDFF0857DDE)
Complete name : E:КодировкаРаздачаастерикс и обеликсАстерикс и обеликс на олимпийских играх 60fps (1).mkv
Format : Matroska
Format version : Version 4 / Version 2
File size : 3.90 GiB
Duration : 1h 57mn
Overall bit rate : 4 768 Kbps
Movie name : -=SD=-HQ-Films.ws
Encoded date : UTC 2015-08-27 13:51:51
Writing application : mkvmerge v7.0.0 ('Where We Going') 64bit built on Jun 9 2014 15:16:27
Writing library : libebml v1.3.0 + libmatroska v1.4.1
Video
ID : 1
Format : AVC
Format/Info : Advanced Video Codec
Format profile : High@L4.1
Format settings, CABAC : Yes
Format settings, ReFrames : 7 frames
Codec ID : V_MPEG4/ISO/AVC
Duration : 1h 57mn
Bit rate : 4 127 Kbps
Width : 1 024 pixels
Height : 432 pixels
Display aspect ratio : 2.35:1
Frame rate : 59.997 fps
Color space : YUV
Chroma subsampling : 4:2:0
Bit depth : 8 bits
Scan type : Progressive
Bits/(Pixel*Frame) : 0.155
Stream size : 3.30 GiB (85%)
Writing library : x264 core 146 r2538 121396c
Encoding settings : cabac=1 / ref=7 / deblock=1:0:0 / analyse=0x3:0x113 / me=umh / subme=11 / psy=1 / psy_rd=1.00:0.00 / mixed_ref=1 / me_range=32 / chroma_me=1 / trellis=2 / 8x8dct=1 / cqm=0 / deadzone=21,11 / fast_pskip=1 / chroma_qp_offset=-2 / threads=12 / lookahead_threads=3 / sliced_threads=0 / nr=0 / decimate=1 / interlaced=0 / bluray_compat=0 / constrained_intra=0 / bframes=16 / b_pyramid=2 / b_adapt=2 / b_bias=0 / direct=1 / weightb=1 / open_gop=0 / weightp=2 / keyint=250 / keyint_min=25 / scenecut=40 / intra_refresh=0 / rc=2pass / mbtree=0 / bitrate=4127 / ratetol=1.0 / qcomp=0.60 / qpmin=0 / qpmax=69 / qpstep=4 / cplxblur=20.0 / qblur=0.5 / ip_ratio=1.40 / pb_ratio=1.30 / aq=1:1.00
Language : English
Default : Yes
Forced : No
Audio
ID : 2
Format : AC-3
Format/Info : Audio Coding 3
Mode extension : CM (complete main)
Codec ID : A_AC3
Duration : 1h 57mn
Bit rate mode : Constant
Bit rate : 640 Kbps
Channel(s) : 6 channels
Channel positions : Front: L C R, Side: L R, LFE
Sampling rate : 48.0 KHz
Bit depth : 16 bits
Compression mode : Lossy
Stream size : 537 MiB (13%)
Title : Дубляж
Language : Russian
Default : Yes
Forced : No
Text #1
ID : 3
Format : UTF-8
Codec ID : S_TEXT/UTF8
Codec ID/Info : UTF-8 Plain Text
Title : Русские
Language : Russian
Default : Yes
Forced : No
Text #2
ID : 4
Format : UTF-8
Codec ID : S_TEXT/UTF8
Codec ID/Info : UTF-8 Plain Text
Title : Eng
Language : English
Default : No
Forced : No

Скриншоты

Астерикс и Обеликс: в Британии

-Название: Астерикс и Обеликс: в Британии
Оригинальное название: Asterix & Obelix: Au service de sa Majeste
Год выпуска: 2012
Страна: Франция, Венгрия, Италия, Испания
Жанр: комедия, приключения, семейный
Продолжительность: 01:50:06
Перевод: Дубляж
Субтитры: русские-Режиссер: Лоран Тирар / Laurent Tirard-В ролях: Жерар Депардье (Obelix), Эдуард Баэр (Asterix), Гийом Гальенн (Jolitorax), Венсан Лакост (Goudurix), Валери Лемерсье (Miss Macintosh), Фабрис Лукини (Jules Cesar), Катрин Денёв (Reine Cordelia), Шарлотта Ле Бон (Ophelia), Були Ланнерс (Grossebaf), Дэни Бун (Tetedepiaf), Атмен Келиф (Pindepis), Жан Рошфор (Lucius Fouinus)-Описание:
Пятидесятый год до нашей эры. Юлий Цезарь рвется к новым завоеваниям. Во главе своих прославленных легионов он собирается захватить остров, который находится на самом краю света - таинственную страну, именуемую Британией.
Войско Цезаря одерживает быструю и безоговорочную победу. Ну... почти безоговорочную: одна крошечная деревушка продолжает яростно обороняться, однако силы на исходе, и королева бриттов Корделия отправляет своего самого надежного офицера Красовакса за подмогой в Галлию, где находится такая же маленькая деревушка, известная своим упорным сопротивлением римлянам.
Между тем, у Астерикса с Обеликсом и так забот хватает. Вождь поручил им сделать настоящего мужчину из Гадорикса, своего надоедливого племянника, недавно приехавшего из Лютеции, а выполнить это крайне непросто. Когда к галлам приезжает Красовакс, те снабжают его бочонком своего знаменитого волшебного зелья, а Астерикс и Обеликс отправляются вместе с ним в Британию. Гадорикса они тоже берут с собой, ведь путешествие - отличный способ пополнить образование молодого человека.
Но, к сожалению, все идет не так, как задумывалось...-Рейтинг

imdb.com: 5.30 (7695)-Качество: BDRip-AVC / 60fps
Формат: MKV
Видео кодек: AVC
Аудио кодек: AC3
Видео: AVC, 1024x432 (2.35:1), 4520 kbps, 59,940 fps, 0,170 bpp
Аудио: русский / AC3 / 5.1 / 48 kHz / 640 kbps / 16 bit
Навигация по главам: есть- -MI
General
Unique ID : 249872654255450255153569629622534077977 (0xBBFBB9039D6A3D48AF3098070ED2FE19)
Complete name : E:КодировкаРаздачаастерикс и обеликсАстерикс и обеликс в Британии 60fps.mkv
Format : Matroska
Format version : Version 4 / Version 2
File size : 3.97 GiB
Duration : 1h 50mn
Overall bit rate : 5 162 Kbps
Movie name : Asterix et Obelix: Au service de Sa Majeste (2012) by Killbrain
Encoded date : UTC 2015-08-26 14:31:37
Writing application : mkvmerge v7.0.0 ('Where We Going') 64bit built on Jun 9 2014 15:16:27
Writing library : libebml v1.3.0 + libmatroska v1.4.1
Video
ID : 2
Format : AVC
Format/Info : Advanced Video Codec
Format profile : High@L4.1
Format settings, CABAC : Yes
Format settings, ReFrames : 7 frames
Codec ID : V_MPEG4/ISO/AVC
Duration : 1h 50mn
Bit rate : 4 520 Kbps
Width : 1 024 pixels
Height : 432 pixels
Display aspect ratio : 2.35:1
Frame rate : 59.940 fps
Color space : YUV
Chroma subsampling : 4:2:0
Bit depth : 8 bits
Scan type : Progressive
Bits/(Pixel*Frame) : 0.170
Stream size : 3.40 GiB (86%)
Writing library : x264 core 146 r2538 121396c
Encoding settings : cabac=1 / ref=7 / deblock=1:0:0 / analyse=0x3:0x113 / me=umh / subme=11 / psy=1 / psy_rd=1.00:0.00 / mixed_ref=1 / me_range=32 / chroma_me=1 / trellis=2 / 8x8dct=1 / cqm=0 / deadzone=21,11 / fast_pskip=1 / chroma_qp_offset=-2 / threads=12 / lookahead_threads=3 / sliced_threads=0 / nr=0 / decimate=1 / interlaced=0 / bluray_compat=0 / constrained_intra=0 / bframes=16 / b_pyramid=2 / b_adapt=2 / b_bias=0 / direct=1 / weightb=1 / open_gop=0 / weightp=2 / keyint=250 / keyint_min=25 / scenecut=40 / intra_refresh=0 / rc=2pass / mbtree=0 / bitrate=4520 / ratetol=1.0 / qcomp=0.60 / qpmin=0 / qpmax=69 / qpstep=4 / cplxblur=20.0 / qblur=0.5 / ip_ratio=1.40 / pb_ratio=1.30 / aq=1:1.00
Language : English
Default : Yes
Forced : No
Audio
ID : 1
Format : AC-3
Format/Info : Audio Coding 3
Mode extension : CM (complete main)
Codec ID : A_AC3
Duration : 1h 50mn
Bit rate mode : Constant
Bit rate : 640 Kbps
Channel(s) : 6 channels
Channel positions : Front: L C R, Side: L R, LFE
Sampling rate : 48.0 KHz
Bit depth : 16 bits
Compression mode : Lossy
Stream size : 504 MiB (12%)
Title : Дубляж
Language : Russian
Default : Yes
Forced : No
Text
ID : 3
Format : UTF-8
Codec ID : S_TEXT/UTF8
Codec ID/Info : UTF-8 Plain Text
Title : Русские
Language : Russian
Default : Yes
Forced : No
Menu
00:00:00.000 : :Chapter 01
00:06:00.777 : :Chapter 02
00:15:09.199 : :Chapter 03
00:22:58.168 : :Chapter 04
00:29:16.588 : :Chapter 05
00:36:26.559 : :Chapter 06
00:42:32.299 : :Chapter 07
00:49:52.823 : :Chapter 08
00:54:20.924 : :Chapter 09
01:02:13.938 : :Chapter 10
01:09:40.634 : :Chapter 11
01:18:59.317 : :Chapter 12
01:24:40.784 : :Chapter 13
01:29:14.223 : :Chapter 14
01:37:28.843 : :Chapter 15
01:42:58.755 : :Chapter 16

Скриншоты

Просьба к переливающим на другие сайты, в оформлении указывайте пожалуйста авторство группы
[Профиль] [ЛС]

Создавать темы 29-Авг-2015 14:23 (спустя 2 часа 44 минуты)

Топик был перенесен из форума Фильмы (HD Rips | 720p, 1080p) в форум Фильмы (Дилогии, трилогии и т.д.)
sergej644
 
Показать сообщения:    

Текущее время: Сегодня 08:51

Часовой пояс: GMT



Вы не можете начинать темы
Вы не можете отвечать на сообщения
Вы не можете редактировать свои сообщения
Вы не можете удалять свои сообщения
Вы не можете голосовать в опросах
Вы не можете прикреплять файлы к сообщениям
Вы не можете скачивать файлы