Астерикс и Клеопатра / Asterix et Cleopatre (1968) BDRip 720p | Remastered | P

 
Автор Сообщение

sergej644 ®

Пол:

Стаж: 4 года 11 месяцев

Сообщений: 6038

Откуда: Soviet Union



Награды: Нет

Торрент-статистика

Создавать темы 11-Авг-2015 16:40

[Цитировать]

Информация о фильме
Название: Астерикс и Клеопатра
Оригинальное название: Asterix et Cleopatre
Год выхода: 1968
Жанр: комедия, приключения
Режиссер: Рене Госинни / René Goscinny, Ли Пайан / Lee Payant
В ролях: Роже Карель, Жак Морель, Мишлин Дэкс, Жак Балютен, Рене Госинни, Анри Лабюсьер, Бернар Лавалетт, Серж Савьён, Пьер Трабо
О фильме:
Египетская царица Клеопатра была не только очень красива, но и столь же строптива.
Ее страшно возмутили слова Цезаря, что египтяне навсегда останутся рабами, поскольку они — народленивый и глупый.
Царица решила утереть нос обнаглевшему императору. А помогут ей в этом друид Починикс с друзьями Астериксом и Обеликсом. Однажды они уже победили римские легионы. Что ждет их в Египте?

Страна: Франция, Бельгия
Продолжительность: 01:12:21
Перевод: Профессиональный (многоголосый закадровый)
Файл
Кодек: H264
Качество: BDRip 720p
Видео: 1000х720, MPEG AVC, 9704 Кбит/с, 23,976 кадр/с
Звук: Русский (AC3, 2 ch, 192 Кбит/с), Французский (AC3, 2 ch, 448 Кбит/с)
Субтитры: Английские, немецкие
Семпл

Скриншоты

MediaInfo

Общее
Уникальный идентификатор : 210239288882733568808163556527721564316
(0x9E2A9D3BDB5C7EA9B691FF15332A489C)
Полное имя : E:
Астерикс.и.Клеопатра.1968.BDRip.720p.Remastered.Rus.Fre.mkv
Формат : Matroska
Версия формата : Version 4 / Version 2
Размер файла : 5,33 Гбайт
Продолжительность : 1 ч. 12 м.
Общий поток : 10,6 Мбит/сек
Название фильма : Астерикс и Клеопатра / Asterix et Cleopatre / Asterix and
Cleopatra (1968)
Дата кодирования : UTC 2015-08-11 11:24:22
Программа кодирования : mkvmerge v7.9.0 ('Birds') 64bit
Библиотека кодирования : libebml v1.3.1 + libmatroska v1.4.2
DURATION : 01:11:50.097000000
NUMBER_OF_FRAMES : 688
NUMBER_OF_BYTES : 23167
_STATISTICS_WRITING_APP : mkvmerge v7.9.0 ('Birds') 64bit
_STATISTICS_WRITING_DATE_UTC : 2015-08-11 11:24:22
_STATISTICS_TAGS : BPS DURATION NUMBER_OF_FRAMES NUMBER_OF_BYTES
Видео
Идентификатор : 1
Формат : AVC
Формат/Информация : Advanced Video Codec
Профиль формата : High@L4.1
Параметр CABAC формата : Да
Параметр ReFrames формата : 11 кадров
Идентификатор кодека : V_MPEG4/ISO/AVC
Продолжительность : 1 ч. 12 м.
Битрейт : 9704 Кбит/сек
Ширина : 1000 пикселей
Высота : 720 пикселей
Соотношение сторон : 1,389
Режим частоты кадров : Постоянный
Частота кадров : 23,976 кадра/сек
Цветовое пространство : YUV
Субдискретизация насыщенности : 4:2:0
Битовая глубина : 8 бит
Тип развёртки : Прогрессивная
Бит/(Пиксели*Кадры) : 0.562
Размер потока : 4,90 Гбайт (92%)
Заголовок : Астерикс и Клеопатра / Asterix et Cleopatre / Asterix and
Cleopatra (1968)
Библиотека кодирования : x264 core 142 r2409 d6b4e63
Настройки программы : cabac=1 / ref=11 / deblock=1:-2:-2 / analyse=0x3:0x133 /
me=umh / subme=11 / psy=1 / psy_rd=0.40:0.00 / mixed_ref=1 / me_range=32 / chroma_me=1 / trellis=2 /
8x8dct=1 / cqm=0 / deadzone=21,11 / fast_pskip=0 / chroma_qp_offset=-2 / threads=12 /
lookahead_threads=1 / sliced_threads=0 / nr=0 / decimate=0 / interlaced=0 / bluray_compat=0 /
constrained_intra=0 / bframes=6 / b_pyramid=2 / b_adapt=2 / b_bias=0 / direct=3 / weightb=1 /
open_gop=0 / weightp=2 / keyint=250 / keyint_min=24 / scenecut=40 / intra_refresh=0 /
rc_lookahead=250 / rc=crf / mbtree=0 / crf=17.0 / qcomp=0.60 / qpmin=0 / qpmax=69 / qpstep=4 /
vbv_maxrate=38000 / vbv_bufsize=30000 / crf_max=0.0 / nal_hrd=none / filler=0 / ip_ratio=1.40 /
pb_ratio=1.30 / aq=1:1.00
Default : Да
Forced : Нет
DURATION : 01:12:21.129000000
NUMBER_OF_FRAMES : 104083
NUMBER_OF_BYTES : 5378361178
_STATISTICS_WRITING_APP : mkvmerge v7.9.0 ('Birds') 64bit
_STATISTICS_WRITING_DATE_UTC : 2015-08-11 11:24:22
_STATISTICS_TAGS : BPS DURATION NUMBER_OF_FRAMES NUMBER_OF_BYTES
Аудио #1
Идентификатор : 2
Формат : AC-3
Формат/Информация : Audio Coding 3
Расширение режима : CM (complete main)
Параметр Endianness формата : Big
Идентификатор кодека : A_AC3
Продолжительность : 1 ч. 12 м.
Вид битрейта : Постоянный
Битрейт : 192 Кбит/сек
Каналы : 2 канала
Расположение каналов : Front: L R
Частота : 48,0 КГц
Битовая глубина : 16 бит
Метод сжатия : С потерями
Размер потока : 99,4 Мбайт (2%)
Заголовок : Профессиональный (многоголосый закадровый)
Язык : Russian
Default : Да
Forced : Нет
Аудио #2
Идентификатор : 3
Формат : AC-3
Формат/Информация : Audio Coding 3
Расширение режима : CM (complete main)
Параметр Endianness формата : Big
Идентификатор кодека : A_AC3
Продолжительность : 1 ч. 12 м.
Вид битрейта : Постоянный
Битрейт : 448 Кбит/сек
Каналы : 2 канала
Расположение каналов : Front: L R
Частота : 48,0 КГц
Битовая глубина : 16 бит
Метод сжатия : С потерями
Размер потока : 232 Мбайт (4%)
Заголовок : Оригинал (Французский)
Язык : French
Default : Нет
Forced : Нет
Текст #1
Идентификатор : 4
Формат : UTF-8
Идентификатор кодека : S_TEXT/UTF8
Идентификатор кодека/Информация : UTF-8 Plain Text
Язык : English
Default : Нет
Forced : Нет
Текст #2
Идентификатор : 5
Формат : UTF-8
Идентификатор кодека : S_TEXT/UTF8
Идентификатор кодека/Информация : UTF-8 Plain Text
Язык : German
Default : Нет
Forced : Нет
Меню
00:00:00.000 : :00:00:00.000
00:15:07.406 : :00:15:07.406
00:25:26.316 : :00:25:26.316
00:35:28.001 : :00:35:28.001
00:43:14.050 : :00:43:14.050
00:51:38.721 : :00:51:38.721
01:00:17.030 : :01:00:17.030
01:08:54.714 : :01:08:54.714
[Профиль] [ЛС]
Показать сообщения:    

Текущее время: Сегодня 22:10

Часовой пояс: GMT



Вы не можете начинать темы
Вы не можете отвечать на сообщения
Вы не можете редактировать свои сообщения
Вы не можете удалять свои сообщения
Вы не можете голосовать в опросах
Вы не можете прикреплять файлы к сообщениям
Вы не можете скачивать файлы