Астерикс: Земля Богов в 3Д / Astérix: Le domaine des dieux / Asterix: The Mansions of the Gods 3D (Л.Клиши, А.Астье / L.Clichy, A.Astier) [2014, Мультфильм, Приключения, Комедия, BDrip-AVC] Half OverUnder / Вертикальная анаморфная стереопара

 
Автор Сообщение

BOSS ®

Пол:

Стаж: 2 года 1 месяц

Сообщений: 3726

Откуда: ODESSA



Награды: 20 (Подробнее)

Mega Seeder 4 (Количество: 1) Top Releaser 3 (Количество: 1) Mega Seeder 3 (Количество: 1)
Торрент-статистика

Создавать темы 07-Окт-2015 20:02

[Цитировать]

-Астерикс: Земля Богов
Astérix: Le domaine des dieux
Asterix: The Mansions of the Gods

Год выпуска: 2014
Страна: Франция (SNC, M6 Studio, ...)
Жанр: Мультфильм, Приключения, Фэнтези, Комедия
Продолжительность: 1:25:35
Перевод: Профессиональный дублированный
Режиссеры: Луис Клиши, Александр Астье / Louis Clichy, Alexandre Astier-Роли озвучивали (дублировали):
Astérix - Роже Карель (Дмитрий Полонский)
Anglaigus - Лоран Дойч
Duplicatha - Лоран Лафитт (Сергей Чихачев)
Oursenplus - Александр Астье
Sénateur Prospectus - Ален Шаба
Cubitus - Эли Семун
Dulcia - Жеральдин Накаш
Petiminus - Артюс де Пенгерн (Диомид Виноградов)
Cétautomatix - Лионель Астье
Ordralfabétix - Франсуа Морель
Obélix - Гийом Бриа (Алексей Колган)
Bonemine - Флоренс Форести (Анастасия Лапина)
Agecanonix - Laurent Morteau (Михаил Тихонов)
Médecin / Le guide / Romain 1 - Бенжамин Готье (Роман Куперман)
-Описание: Астерикс и его лучший друг Обеликс продолжают свою многолетнюю борьбу с Цезарем, который хочет наконец-то расправиться с неукротимыми галлами. Вокруг деревни Астерикса Цезарь приказывает построить новый Рим — Землю Богов. В галльской деревне хаос и смятение. Но Астерикс и Обеликс не сдаются!-Премьера: 26 ноября 2014 (18 декабря 2014)
Релиз на Blu-Ray (DVD) (Россия): 10 февраля 2015

. .
За исходный BD 3D спасибо crazy_gringo и
-Качество: BDRip (by Ash61)
Контейнер: MKV
Формат 3D: Half OverUnder / Вертикальная анаморфная стереопара
Порядок ракурсов: левый ракурс первый
Видео кодек: x264
Аудио кодек: AC3-Видео: AVC / 23,976 fps / 1920х1080p / ~6.1 Mbps
Аудио: Русский / AC3 / 48 KHz / 5.1 ch / 640 Kbps (Дубляж - BD 3D Rus)
Субтитры: Отсутствуют

MediaInfo

General
Unique ID : 228026756484632062006404561386433080055 (0xAB8C5B188FAE064BB0C18766EF46EAF7)
Complete name : E:\Asterix.TheMansionsOfTheGods(2014)3D-halfOU(Ash61).mkv
Format : Matroska
Format version : Version 2
File size : 4.12 GiB
Duration : 1h 25mn
Overall bit rate : 6 901 Kbps
Movie name : Астерикс: Земля Богов / Astérix: Le domaine des dieux / Asterix: The Mansions of the Gods (2014) 3D
Encoded date : UTC 2015-02-06 21:00:09
Writing application : mkvmerge v5.8.0 ('No Sleep / Pillow') built on Sep 2 2012 15:37:04
Writing library : libebml v1.2.3 + libmatroska v1.3.0
Video
ID : 1
Format : AVC
Format/Info : Advanced Video Codec
Format profile : High@L4.1
Format settings, CABAC : Yes
Format settings, ReFrames : 4 frames
Codec ID : V_MPEG4/ISO/AVC
Duration : 1h 25mn
Bit rate : 6 123 Kbps
Width : 1 920 pixels
Height : 1 080 pixels
Display aspect ratio : 16:9
Frame rate mode : Constant
Frame rate : 23.976 fps
Color space : YUV
Chroma subsampling : 4:2:0
Bit depth : 8 bits
Scan type : Progressive
Bits/(Pixel*Frame) : 0.123
Stream size : 3.66 GiB (89%)
Title : BDRip by Ash61 (from BD3D Rus)
Writing library : x264 core 138 r2358 9e941d1
Encoding settings : cabac=1 / ref=4 / deblock=1:-3:-3 / analyse=0x3:0x113 / me=umh / subme=10 / psy=1 / psy_rd=1.00:0.00 / mixed_ref=1 / me_range=32 / chroma_me=1 / trellis=2 / 8x8dct=1 / cqm=0 / deadzone=21,11 / fast_pskip=1 / chroma_qp_offset=-2 / threads=12 / lookahead_threads=2 / sliced_threads=0 / nr=0 / decimate=1 / interlaced=0 / bluray_compat=0 / constrained_intra=0 / bframes=9 / b_pyramid=2 / b_adapt=2 / b_bias=0 / direct=3 / weightb=1 / open_gop=0 / weightp=2 / keyint=250 / keyint_min=23 / scenecut=40 / intra_refresh=0 / rc_lookahead=60 / rc=crf / mbtree=1 / crf=16.5 / qcomp=0.70 / qpmin=0 / qpmax=69 / qpstep=4 / vbv_maxrate=40000 / vbv_bufsize=30000 / crf_max=0.0 / nal_hrd=none / frame-packing=4 / ip_ratio=1.40 / aq=1:0.70
Language : French
Default : Yes
Forced : No
Audio
ID : 2
Format : AC-3
Format/Info : Audio Coding 3
Mode extension : CM (complete main)
Format settings, Endianness : Big
Codec ID : A_AC3
Duration : 1h 25mn
Bit rate mode : Constant
Bit rate : 640 Kbps
Channel(s) : 6 channels
Channel positions : Front: L C R, Side: L R, LFE
Sampling rate : 48.0 KHz
Bit depth : 16 bits
Compression mode : Lossy
Stream size : 392 MiB (9%)
Title : Дубляж - BD3D Rus
Language : Russian
Default : Yes
Forced : No
Menu
00:00:00.000 : :1
00:09:02.208 : :2
00:20:30.187 : :3
00:31:00.525 : :4
00:44:12.316 : :5
00:56:11.201 : :6
01:04:48.718 : :7
01:17:21.762 : :8

Для оценки 3Д - Анимированные скрины















[Профиль] [ЛС]
Показать сообщения:    

Текущее время: Сегодня 16:55

Часовой пояс: GMT



Вы не можете начинать темы
Вы не можете отвечать на сообщения
Вы не можете редактировать свои сообщения
Вы не можете удалять свои сообщения
Вы не можете голосовать в опросах
Вы не можете прикреплять файлы к сообщениям
Вы не можете скачивать файлы