Архитектор / Der Architekt (Ина Вайсе / Ina Weisse) [2008, Германия, драма, DVB-AVC] MVO (Kino Polska)

 
Автор Сообщение

TorrentFilm ®

Пол:

Стаж: 2 года

Сообщений: 7741



Награды: Нет

Торрент-статистика

Создавать темы 06-Июл-2015 00:05

[Цитировать]

Архитектор
Der Architekt- Страна: Германия
Жанр: драма
Год выпуска: 2008
Продолжительность: 01:29:43Перевод: Профессиональный (многоголосый закадровый) по заказу Kino Polska на производственно-технической базе Студии "Акцент"
Cубтитры: нет
Режиссер: Ина Вайсе / Ina Weisse
В ролях: Йозеф Бирбихлер / Josef Bierbichler (Georg Winter), Хильде Ван Мигхем / Hilde Van Mieghem (Eva Winter), Маттиас Швайгхёфер / Matthias Schweighöfer (Jan Winter), Сандра Хюллер / Sandra Hüller (Reh Winter), Софи Ройс / Sophie Rois (Hannah)
Описание: Получая приз, архитектор Георг Винтер объясняет, что именно у архитекторов есть счастливая возможность по построенному зданию проверить, была ли верной первоначальная идея. Скоро Георгу придется оценить достижения и ошибки своей собственной личной жизни. Вместе с семьей он едет в родную тирольскую деревушку на похороны матери. Непогода заставляет их там задержаться. Неожиданная изоляция проливает новый свет на прошлое и настоящее родителей и двоих почти взрослых детей.
Доп. информация: Filmbox Arthouse IPTV
Награды: приз за лучший сценарий Max Ophüls Festival 2009; "Золотой приз" German Film Awards 2009 лучшей актрисе второго плана (Sophie Rois); 2 награды Nuremberg Film Festival "Turkey-Germany" 2009 (лучший фильм, лучший актер - Josef Bierbichler). Участник Berlin International Film Festival 2009.

Качество видео: DVB-AVC
Формат видео: MKV
Видео: AVC (H.264), 720x576@1024x576 (16:9), 25 fps, ~832 kbps avg, 0.080 bit/pixel
Аудио: MPEG Audio 2, 2 ch, 48 kHz, ~128.00 kbps avg

MediaInfo

ОбщееУникальный идентификатор : 198403000606672535327859094372189121348 (0x9543072A83AA1BF281B87CD883FAAB44)Полное имя : F:\My Torrents 3\[apreder]Der_Architekt(2008)DVB.mkvФормат : MatroskaВерсия формата : Version 2Размер файла : 628 МбайтПродолжительность : 1 ч. 29 м.Общий поток : 979 Кбит/секДата кодирования : UTC 2015-07-04 13:17:14Программа кодирования : mkvmerge v8.1.0 ('Psychedelic Postcard') 64bitБиблиотека кодирования : libebml v1.3.1 + libmatroska v1.4.2Attachements : cover.jpg / cover_sample.jpg
ВидеоИдентификатор : 2Формат : AVCФормат/Информация : Advanced Video CodecПрофиль формата : Main@L3Параметр CABAC формата : ДаПараметр ReFrames формата : 3 кадраИдентификатор кодека : V_MPEG4/ISO/AVCПродолжительность : 1 ч. 29 м.Битрейт : 832 Кбит/секШирина : 720 пикселейВысота : 576 пикселейСоотношение сторон : 16:9Соотношение сторон в оригинале : 16:9Режим частоты кадров : ПостоянныйЧастота кадров : 25,000 кадров/секСтандарт вещания : ComponentЦветовое пространство : YUVСубдискретизация насыщенности : 4:2:0Битовая глубина : 8 битТип развёртки : ПрогрессивнаяПорядок развёртки : Верхнее поле первоеБит/(Пиксели*Кадры) : 0.080Размер потока : 534 Мбайт (85%)Default : ДаForced : Нетcolour_range : LimitedОсновные цвета : BT.601 PALХарактеристики трансфера : BT.470 System B, BT.470 System GКоэффициенты матрицы : BT.601
АудиоИдентификатор : 1Формат : MPEG AudioВерсия формата : Version 1Профиль формата : Layer 2Идентификатор кодека : A_MPEG/L2Идентификатор кодека/Подсказка : MP2Продолжительность : 1 ч. 29 м.Вид битрейта : ПостоянныйБитрейт : 128 Кбит/секКаналы : 2 каналаЧастота : 48,0 КГцМетод сжатия : С потерямиЗадержка видео : -23 мс.Размер потока : 82,2 Мбайт (13%)Язык : RussianDefault : ДаForced : Нет

Скриншот c названием фильма

Скриншоты


Резервные скриншоты


-[2'422]
[Профиль] [ЛС]

Создавать темы 06-Авг-2015 22:25 (спустя 1 месяц)

Топик был перенесен из форума Фильмы до 2014 года в форум Фильмы до 2012 года
sergej644
 

Создавать темы 12-Июн-2016 08:52 (спустя 11 месяцев 6 дней)

Топик был перенесен из форума Фильмы 2011 года в форум Фильмы 2006-2008 года
Russian Mafia
 
Кто просматривает тему:

Форум Тема Автор Размер
365 365: Вызов зодчим. Страсбургский собор / Le Défi des Bâtisseurs. La Cathédrale de Strasbourg / The builder's challenge - Strasbourg (Марк Ямпольски / Marc Ja... skorpionN 750 MB
Архитектура и строительство 365: Замки и дворцы Европы / Castles and Palaces of Europe (Schlösserwelten Europas) [серии 1-5 из 5] (Jeremy J.P. Fekete / Джереми Фекете, Gero von Boehm / Геро фон Бём) [2013 г., Документальн... skorpionN 3.63 GB
Архитектура и строительство 365: Замки Луары / The Châteaux of the Loire Valley [серии 1-9 из 9] (Жак Више / Jacques Vichet) [2012-2014 г.г., Документальный, архитектура, SATRip] skorpionN 6.47 GB
Архитектура и строительство 365: Коллекция памятников ЮНЕСКО на территории Чешской республики / Národní klenoty: soubor Památek UNESCO na území České republiky [13 из 13] (Отто Каллус / Otto Kallus, Иржи Новак /Jiří Novák)... skorpionN 4.72 GB
365 365: Людовик ХIV, загадка форта Сент Себастьян / Louis XIV et l'énigme du fort Saint Sébastien (Лоран Мармоль / Laurent Marmol, Фредерик Лоссиньоль / Frédéric Lossig... skorpionN 748 MB
365 365: Сети истории / Storia in Rete [выпуски 1-10] (Александра Джиганте / Alessandra Gigante, Фабио Андриола / Fabio Andriola) [2009-2013 г., окументально-постановочный, история, арх... skorpionN 8.01 GB
BBC BBC: Сказочный замок короля Людвига II / The Fairytale Castles of king Ludwig II (Александр Лейт / Alexander Leigth) [2013 г., Документальный, архитектура, искусство, история, HDTVRip 720p] skorpionN 1.59 GB
Da Vinci Learning Da Vinci Learning: Эко-2. Архитектура влияния / E2. Intervention Architecture (Тэд Феттинг / Tad Fettig) [2012 г., Документальный, SATRip] skorpionN 859 MB
Показать сообщения:    

Текущее время: Сегодня 02:26

Часовой пояс: GMT



Вы не можете начинать темы
Вы не можете отвечать на сообщения
Вы не можете редактировать свои сообщения
Вы не можете удалять свои сообщения
Вы не можете голосовать в опросах
Вы не можете прикреплять файлы к сообщениям
Вы не можете скачивать файлы