(Heavy Metal) Артур Беркут - Победителей не судят - 2014, FLAC, (image+cue), lossless

 
Автор Сообщение

sergej644 ®

Пол:

Стаж: 4 года 11 месяцев

Сообщений: 6043

Откуда: Soviet Union



Награды: Нет

Торрент-статистика

Создавать темы 26-Сен-2014 09:49

[Цитировать]

--Артур Беркут - Победителей не судят
Страна: Россия
Страна производитель диска: Россия
Год выпуска: 2014
Лейбл: CD Maximum
Номер по каталогу: CDM 0814-3064
Жанр: Heavy Metal
Формат: FLAC
тип рипа: (Image+cue)
Битрейт аудио: Lossless
Продолжительность: 00:45:30

треклист

01. Преданный мир (04:49)
02. Сон (04:32)
03. Победителей не судят (04:42)
04. Ты не один (04:18)
05. Воля рождает волю (04:12)
06. Нажимай на стоп (04:22)
07. Отрывай (04:24)
08. Пилигрим (04:53)
09. Превращенный в пыль (04:22)
10. Победителей не судят (feat. Д. Губерниев) (04:51)

лог создания рипа

Exact Audio Copy V1.0 beta 3 from 29. August 2011
Отчёт EAC об извлечении, выполненном 24. сентября 2014, 2:37
Артур Беркут / Победителей не судят
Дисковод: ATAPI   iHAS524   B   Adapter: 1  ID: 0
Режим чтения                 : Достоверность
Использование точного потока : Да
Отключение кэша аудио        : Да
Использование указателей C2  : Нет
Коррекция смещения при чтении                     : 6
Способность читать области Lead-in и Lead-out     : Нет
Заполнение пропущенных сэмплов тишиной            : Да
Удаление блоков с тишиной в начале и конце        : Нет
При вычислениях CRC использовались нулевые сэмплы : Да
Интерфейс                                         : Установленный внешний ASPI-интерфейс
Выходной формат          : Пользовательский кодировщик
Выбранный битрейт        : 128 kBit/s
Качество                 : Высокий
Добавление ID3-тега      : Нет
Утилита сжатия           : C:\Program Files\Exact Audio Copy\Flac\flac.exe
Дополнительные параметры : -V -8 -T "Date=%year%" -T "Genre=%genre%" %source%
TOC извлечённого CD
     Трек |   Старт  | Длительность | Начальный сектор | Конечный сектор
    ---------------------------------------------------------------------
       1  |  0:00.00 |    4:48.66   |           0      |      21665
       2  |  4:48.66 |    4:32.50   |       21666      |      42115
       3  |  9:21.41 |    4:42.36   |       42116      |      63301
       4  | 14:04.02 |    4:18.55   |       63302      |      82706
       5  | 18:22.57 |    4:12.21   |       82707      |     101627
       6  | 22:35.03 |    4:21.72   |      101628      |     121274
       7  | 26:57.00 |    4:24.66   |      121275      |     141140
       8  | 31:21.66 |    4:53.66   |      141141      |     163181
       9  | 36:15.57 |    4:22.22   |      163182      |     182853
      10  | 40:38.04 |    4:51.22   |      182854      |     204700
Характеристики диапазона извлечения и сообщения об ошибках
Выбранный диапазон
     Имя файла C:\Documents and Settings\Александр\Мои документы\Моя музыка\Exact Audio Copy\Артур Беркут - Победителей не судят (2014).wav
     Пиковый уровень 99.3 %
     Скорость извлечения 3.2 X
     Качество диапазона 100.0 %
     CRC теста ECDB8A42
     CRC копии ECDB8A42
     Копирование... OK
Ошибок не произошло
AccurateRip: сводка
Трек  1  отсутствует в базе данных
Трек  2  отсутствует в базе данных
Трек  3  отсутствует в базе данных
Трек  4  отсутствует в базе данных
Трек  5  отсутствует в базе данных
Трек  6  отсутствует в базе данных
Трек  7  отсутствует в базе данных
Трек  8  отсутствует в базе данных
Трек  9  отсутствует в базе данных
Трек 10  отсутствует в базе данных
Ни одного трека нет в базе AccurateRip
Конец отчёта
---- CUETools DB Plugin V2.1.3

содержание индексной карты *cue

REM GENRE "Heavy Metal"
REM DATE 2014
REM DISCID 830AA90A
REM COMMENT "ExactAudioCopy v1.0b3"
PERFORMER "Артур Беркут"
TITLE "Победителей не судят"
FILE "Артур Беркут - Победителей не судят (2014).flac" WAVE
  TRACK 01 AUDIO
    TITLE "Преданный мир"
    PERFORMER "Артур Беркут"
    ISRC 000000000000
    INDEX 01 00:00:00
  TRACK 02 AUDIO
    TITLE "Сон"
    PERFORMER "Артур Беркут"
    ISRC 000000000000
    INDEX 01 04:48:66
  TRACK 03 AUDIO
    TITLE "Победителей не судят"
    PERFORMER "Артур Беркут"
    ISRC 000000000000
    INDEX 01 09:21:41
  TRACK 04 AUDIO
    TITLE "Ты не один"
    PERFORMER "Артур Беркут"
    ISRC 000000000000
    INDEX 01 14:04:02
  TRACK 05 AUDIO
    TITLE "Воля рождает волю"
    PERFORMER "Артур Беркут"
    ISRC 000000000000
    INDEX 01 18:22:57
  TRACK 06 AUDIO
    TITLE "Нажимай на стоп"
    PERFORMER "Артур Беркут"
    ISRC 000000000000
    INDEX 01 22:35:03
  TRACK 07 AUDIO
    TITLE "Отрывай"
    PERFORMER "Артур Беркут"
    ISRC 000000000000
    INDEX 01 26:57:00
  TRACK 08 AUDIO
    TITLE "Пилигрим"
    PERFORMER "Артур Беркут"
    ISRC 000000000000
    INDEX 01 31:21:66
  TRACK 09 AUDIO
    TITLE "Превращенный в пыль"
    PERFORMER "Артур Беркут"
    ISRC 000000000000
    INDEX 01 36:15:57
  TRACK 10 AUDIO
    TITLE "Победителей не судят (feat. Д. Губерниев)"
    PERFORMER "Артур Беркут"
    ISRC 000000000000
    INDEX 01 40:38:04
-

Доп. информация

Артур Беркут — советский и российский рок-музыкант, завоевавший популярность как вокалист групп Автограф и Ария. С момента начала профессиональной карьеры сменил в общей сложности десять музыкальных коллективов.
Родился: 24 мая 1962 г. (52 года)
Музыкальные группы: Ария (2002 г. – 2011 г.), Автограф (1982 г. – 1990 г.), Маврин (2000 г.)

youtube

--Не забываем говорить
[Профиль] [ЛС]

Создавать темы 13-Авг-2015 10:29 (спустя 10 месяцев 17 дней)

Топик был перенесен из форума Отечественная в форум Metal
sergej644
 
Показать сообщения:    

Текущее время: Сегодня 22:33

Часовой пояс: GMT



Вы не можете начинать темы
Вы не можете отвечать на сообщения
Вы не можете редактировать свои сообщения
Вы не можете удалять свои сообщения
Вы не можете голосовать в опросах
Вы не можете прикреплять файлы к сообщениям
Вы не можете скачивать файлы