(Heavy Metal)Артерия - 2014 (2014) [FLAC(image+cue), Lossless]

 
Автор Сообщение

sergej644 ®

Пол:

Стаж: 4 года 11 месяцев

Сообщений: 6043

Откуда: Soviet Union



Награды: Нет

Торрент-статистика

Создавать темы 15-Окт-2014 14:16

[Цитировать]

-Артерия - 2014 (2014)-Год: 2014
Жанр: Heavy Metal
Продолжительность: 01:11:58
Лейбл: Артерия
№ по каталогу: N/A
Страна: Россия
Кодек: Flac
Тип рипа: image+.cue
Битрейт: Lossless-Треклист:
01. Intro
02. Мы
03. Ветер и Птица
04. Искажение
05. Ветер Пустых Дорог
06. Говори с Миром
07. Свет Погасшей Звезды
08. Выбирай
09. Ты За Гранью
10. Outro
11. Край Ветров (Bonus)
12. Стальные Нервы (Bonus)
13. Никто (Bonus)
14. Time Will Call Your Name (Bonus)
15. Боль (Bonus)
16. Сам Себе Враг (Bonus)-

Отчёт ЕАС:

Exact Audio Copy V1.0 beta 3 from 29. August 2011
Отчёт EAC об извлечении, выполненном 4. октября 2014, 14:02
Артерия /  2014
Дисковод: PIONEER DVD-RW  DVR-219L   Adapter: 3  ID: 0
Режим чтения                 : Достоверность
Использование точного потока : Да
Отключение кэша аудио        : Да
Использование указателей C2  : Нет
Коррекция смещения при чтении                     : 6
Способность читать области Lead-in и Lead-out     : Нет
Заполнение пропущенных сэмплов тишиной            : Да
Удаление блоков с тишиной в начале и конце        : Нет
При вычислениях CRC использовались нулевые сэмплы : Да
Интерфейс                                         : Встроенный Win32-интерфейс для Win NT/2000
Выходной формат          : Пользовательский кодировщик
Выбранный битрейт        : 128 kBit/s
Качество                 : Высокий
Добавление ID3-тега      : Нет
Утилита сжатия           : C:\Program Files\Exact Audio Copy\Flac\flac.exe
Дополнительные параметры : -V -8 -T "Date=%year%" -T "Genre=%genre%" %source%
TOC извлечённого CD
     Трек |   Старт  | Длительность | Начальный сектор | Конечный сектор
    ---------------------------------------------------------------------
       1  |  0:00.00 |    1:22.57   |           0      |       6206
       2  |  1:22.57 |    3:49.71   |        6207      |      23452
       3  |  5:12.53 |    4:48.50   |       23453      |      45102
       4  | 10:01.28 |    4:54.53   |       45103      |      67205
       5  | 14:56.06 |    6:00.46   |       67206      |      94251
       6  | 20:56.52 |    4:23.21   |       94252      |     113997
       7  | 25:19.73 |    5:09.01   |      113998      |     137173
       8  | 30:28.74 |    3:43.71   |      137174      |     153969
       9  | 34:12.70 |    4:50.41   |      153970      |     175760
      10  | 39:03.36 |    1:14.26   |      175761      |     181336
      11  | 40:17.62 |    5:05.51   |      181337      |     204262
      12  | 45:23.38 |    5:49.32   |      204263      |     230469
      13  | 51:12.70 |    5:18.45   |      230470      |     254364
      14  | 56:31.40 |    5:03.68   |      254365      |     277157
      15  | 61:35.33 |    6:12.31   |      277158      |     305088
      16  | 67:47.64 |    4:10.71   |      305089      |     323909
Характеристики диапазона извлечения и сообщения об ошибках
Выбранный диапазон
     Имя файла G:\Музыка\Исполнители\Артерия\Артерия -  2014.wav
     Пиковый уровень 100.0 %
     Скорость извлечения 3.2 X
     Качество диапазона 100.0 %
     CRC теста F5CC12A6
     CRC копии F5CC12A6
     Копирование... OK
Ошибок не произошло
AccurateRip: сводка
Трек  1  : извлечено точно (доверие 1)  [50A7D6F0]  (AR v2)
Трек  2  : извлечено точно (доверие 1)  [51CFAE1A]  (AR v2)
Трек  3  : извлечено точно (доверие 1)  [6DDEF45D]  (AR v2)
Трек  4  : извлечено точно (доверие 1)  [496CBDC8]  (AR v2)
Трек  5  : извлечено точно (доверие 1)  [E6C2AD19]  (AR v2)
Трек  6  : извлечено точно (доверие 1)  [D8757AA9]  (AR v2)
Трек  7  : извлечено точно (доверие 1)  [8133DFA9]  (AR v2)
Трек  8  : извлечено точно (доверие 1)  [B205E774]  (AR v2)
Трек  9  : извлечено точно (доверие 1)  [E7308EB6]  (AR v2)
Трек 10  : извлечено точно (доверие 1)  [48D127D5]  (AR v2)
Трек 11  : извлечено точно (доверие 1)  [85609BE9]  (AR v2)
Трек 12  : извлечено точно (доверие 1)  [7CBCD231]  (AR v2)
Трек 13  : извлечено точно (доверие 1)  [99587FF5]  (AR v2)
Трек 14  : извлечено точно (доверие 1)  [DF37C4C4]  (AR v2)
Трек 15  : извлечено точно (доверие 1)  [0392ADFA]  (AR v2)
Трек 16  : извлечено точно (доверие 1)  [7CB4CEEE]  (AR v2)
Все треки извлечены точно
Конец отчёта
==== Контрольная сумма отчёта FC1F15CE653B980C6B61AA53116D74790195A7BD34AAFFDC4AF3673FB28B1F15 ====

Отчёт auCDtect Task manager:

-----------------------
DON'T MODIFY THIS FILE
-----------------------
PERFORMER: auCDtect Task Manager, ver. 1.6.0 RC1 build 1.6.0.1
Copyright (c) 2008-2010 y-soft. All rights reserved
http://y-soft.org
ANALYZER: auCDtect: CD records authenticity detector, version 0.8.2
Copyright (c) 2004 Oleg Berngardt. All rights reserved.
Copyright (c) 2004 Alexander Djourik. All rights reserved.
FILE: Артерия -  2014.flac
  Size: 517037551 Hash: 66F22A721231CE8A1499C0E4738E8FAC Accuracy: -m0
  Conclusion: CDDA 100%
  Signature: A038C45DB3C164E9B985BA3F537854D447D02DDF
[Профиль] [ЛС]

Создавать темы 13-Авг-2015 10:29 (спустя 9 месяцев 28 дней)

Топик был перенесен из форума Отечественная в форум Metal
sergej644
 
Показать сообщения:    

Текущее время: Сегодня 04:21

Часовой пояс: GMT



Вы не можете начинать темы
Вы не можете отвечать на сообщения
Вы не можете редактировать свои сообщения
Вы не можете удалять свои сообщения
Вы не можете голосовать в опросах
Вы не можете прикреплять файлы к сообщениям
Вы не можете скачивать файлы