Артек (Сергей Ильин-Козловский) [2015, Документальный, HDTV 1080i]

 
Автор Сообщение

TorrentFilm ®

Пол:

Стаж: 2 года

Сообщений: 7741



Награды: Нет

Торрент-статистика

Создавать темы 17-Июн-2015 17:24

[Цитировать]

Артек
Дата выхода: 16/06/2015
Страна: Россия
Студия: Первый Канал HD
Жанр: Документальный
Продолжительность: 00:48:42
Режиссер: Сергей Ильин-Козловский
Описание: Артек - самый большой детский курорт в мире. На его территории могло бы поместиться княжество Монако со всеми своими казино, или, например, остров Тенерифе со всеми находящимися на нем пятизвездочными отелями.
Но в нашей стране на этом месте построили единственный в своем роде город для детей, которому уже 90 лет и в котором мечтал оказаться каждый из живущих в нашей стране. Существуют две версии истории появления "Артека" - та, которую знают все, и правильная. Первый и самый большой в мире детский оздоровительный курорт на море придумал не Совет народных комиссаров, а великий русский иммунолог Сергей Метальников, который еще и придумал, как спасти человечество от туберкулеза.
Главный пионерский лагерь страны начинался с самой большой в Крыму оливковой рощи. В ней в 1925 году поселилось восемьдесят пионеров, которые укрывались от непогоды в брезентовых палатках. К 1930-му году, когда самая большая в Крыму оливковая роща значительно уменьшилась, а количество пионеров значительно увеличилось, в "Артеке" появилось уже два лагеря. "Нижний", позднее переименованный в "Морской", и "Верхний", позднее названный "Горным".

продолжение

В 1936 году правительство подарило детям поместье "Суук-Су", построенное архитектором Императорского Двора Николаем Красновым. Так появился артековский лагерь номер три - "Лазурный".
Спустя еще восемь лет строится четвертый лагерь "Кипарисный". А через восемнадцать лет после этого потрясающий русский архитектор Анатолий Полянский строит на территории "Артека" комплекс "Прибрежный", состоящий сразу из четырех лагерей: "Речной", "Озерный", "Полевой" и "Лесной". Тогда же лагерь "Горный" разделился на "Хрустальный", "Янтарный", "Алмазный" и гору Аю-Даг.
Всего на территории "Артека", которая составляет двести восемь гектар, - четыреста семь сооружений, сто один памятник, триста видов различных зеленых насаждений, и один самый большой в Европе Болотный Кипарис, называемый в просторечии Таксодиум. Также на территории Артека, с начала восьмидесятых годов существует одиннадцатиметровая статуя Владимира Ильича Ленина, которая считается одним из самых крупных в мире противооползневых сооружений. В свободное от оползней время статуя служит морским ориентиром для судов. А еще здесь растет волшебная секвойя. Возле нее загадывают желания, которые потом почти всегда сбываются.
Тип релиза: HDTV 1080i
Контейнер: TS
Видео: MPEG4 Video (H264) 1920x1080 25.00fps 8803kbps
Аудио: MPEG Audio 48000Hz stereo 192kbps

MediaInfo

ОбщееИдентификатор : 1 (0x1)Полное имя : *:\Артек.HDTV.1080i.tsФормат : MPEG-TSРазмер файла : 3,22 ГбайтПродолжительность : 48 м.Режим общего битрейта : ПеременныйОбщий поток : 9464 Кбит/сек
ВидеоИдентификатор : 1603 (0x643)Идентификатор меню : 1 (0x1)Формат : AVCФормат/Информация : Advanced Video CodecПрофиль формата : High@L4Параметр CABAC формата : ДаПараметр ReFrames формата : 3 кадраИдентификатор кодека : 27Продолжительность : 48 м.Битрейт : 8803 Кбит/секШирина : 1920 пикселейВысота : 1080 пикселейСоотношение сторон : 16:9Частота кадров : 25,000 кадров/секСтандарт вещания : ComponentЦветовое пространство : YUVСубдискретизация насыщенности : 4:2:0Битовая глубина : 8 битТип развёртки : ЧересстрочнаяПорядок развёртки : Верхнее поле первоеБит/(Пиксели*Кадры) : 0.170Размер потока : 2,99 Гбайт (93%)Цветовой диапазон : LimitedОсновные цвета : BT.709Характеристики трансфера : BT.709Коэффициенты матрицы : BT.709
АудиоИдентификатор : 2603 (0xA2B)Идентификатор меню : 1 (0x1)Формат : MPEG AudioВерсия формата : Version 1Профиль формата : Layer 2Идентификатор кодека : 3Продолжительность : 48 м.Вид битрейта : ПостоянныйБитрейт : 192 Кбит/секКаналы : 2 каналаЧастота : 48,0 КГцМетод сжатия : С потерямиРазмер потока : 66,9 Мбайт (2%)Язык : Russian

Скриншоты

[Профиль] [ЛС]
Кто просматривает тему:

Форум Тема Автор Размер
Документальные HD Артек (Сергей Ильин-Козловский) [2015, Документальный, HDTV 720p] TorrentFilm 1.49 GB
Показать сообщения:    

Текущее время: Сегодня 14:04

Часовой пояс: GMT



Вы не можете начинать темы
Вы не можете отвечать на сообщения
Вы не можете редактировать свои сообщения
Вы не можете удалять свои сообщения
Вы не можете голосовать в опросах
Вы не можете прикреплять файлы к сообщениям
Вы не можете скачивать файлы