Арн: Рыцарь-тамплиер / Arn: Tempelriddaren (2007) BDRip-AVC 720p | ATV | P

 
Автор Сообщение

sergej644 ®

Пол:

Стаж: 4 года 11 месяцев

Сообщений: 6040

Откуда: Soviet Union



Награды: Нет

Торрент-статистика

Создавать темы 10-Фев-2015 10:17

[Цитировать]

Арн: Рыцарь-тамплиер / Arn: Tempelriddaren (2007) BDRip-AVC 720p | ATV | P
«In a Time of War and Betrayal, a Hero Will Rise»
- Год выпуска: 2007
Производство: Германия, Дания, Швеция, Финляндия, Великобритания, Норвегия / AMC Pictures, Arion Communications Ltd., Dagsljus Filmequipment
Жанр: исторический, приключения, драма, экранизация
Режиссер: Петер Флинт
В ролях: Йоаким Наттерквист, София Хелин, Стеллан Скарсгард, Микаэл Нюквист, Морган Аллинг, Свен-Бертиль Таубе, Биби Андерссон, Густаф Скарсгард, Саймон Кэллоу, Венсан Перес, Юлия Дуфвениус, Сванте Мартин, Ёрген Лангхелле, Томас В. Габриэльссон, Лотта Ларссон
Описание:
Арн, сын высокопоставленного шведского дворянина, заканчивает свое монастырское обучение и, в наказание за свою запретную любовь, отправляется в Священные Земли в качестве рыцаря-тамплиера. Там ему суждено принять участие в битве при Хатине и других событиях, связанных с тяжёлыми временами Иерусалимского королевства. Экранизация произведения Яна Гиллоу.

Продолжительность: 02:18:25
Перевод: Профессиональный (многоголосый закадровый) [Студия "Кравец"]
Cубтитры: Отсутствуют
Качество: BDRip [720p]
Видео: MPEG-4 AVC/H.264, 1280x544 (2.35:1), 5 100 kbps, 24.000 fps
Аудио 1: Русский/Профессиональный (многоголосый закадровый), AAC / 2.0 / 170 Kbps / 48.0 KHz
Аудио 2: Русский/Профессиональный (многоголосый закадровый), AC3 / 5.1 / 640 Kbps / 48.0 KHz-

iTunes Meta Tags

Sort Name: Arn: Tempelriddaren
XID: Apple:vendor_id:2007-266758
Content ID: 266758
Copyright: AMC Pictures, Arion Communications Ltd., Dagsljus Filmequipment
ScreenWriters: Ганс Гуннарссон, Ян Гиллоу
Producers: Вальдемар Бергендаль, Хеге Аструп, Питер Бенгтссон
Director: Петер Флинт
Cast: Joakim Nätterqvist (Arn Magnusson), Sofia Helin (Cecilia Algotsdotter), Stellan Skarsgård (Birger Brosa), Michael Nyqvist (Magnus Folkesson), Mirja Turestedt (Sigrid), Morgan Alling (Eskil Magnusson), Sven-Bertil Taube (Bishop Bengt), Bibi Andersson (Mother Rikissa), Gustaf Skarsgård (Knut Eriksson), Simon Callow (Father Henry), Vincent Pérez (Brother Guilbert), Thomas W. Gabrielsson (Emund Ulvbane)
Rating: R
Long Deion: Арн, сын высокопоставленного шведского дворянина, заканчивает свое монастырское обучение и, в наказание за свою запретную любовь, отправляется в Священные Земли в качестве рыцаря-тамплиера. Там ему суждено принять участие в битве при Хатине и других событиях, связанных с тяжёлыми временами Иерусалимского королевства…
Deion: Арн, сын высокопоставленного шведского дворянина, заканчивает свое монастырское обучение и, в наказание за свою запретную любовь, отправляется в Священные Земли в качестве рыцаря-тамплиера. Там ему суждено принять участие в битве при Хатине и других
Release Date: 2007-12-17T08:00:00Z
Genre: Action & Adventure
Artist: Peter Flinth
Name: Арн: Рыцарь-тамплиер
Comments: «In a Time of War and Betrayal, a Hero Will Rise»

MediaInfo

General
Complete name : C:CREATE264mod1outArn-Tempelriddaren.2007.BDRip.720p.P.m4v
Format : MPEG-4
Codec ID : M4V
File size : 5.71 GiB
Duration : 2h 19mn
Overall bit rate mode : Variable
Overall bit rate : 5 868 Kbps
Movie name : Арн: Рыцарь-тамплиер
Performer : Peter Flinth
Genre : Action & Adventure
ContentType : Short Film
Deion : Арн, сын высокопоставленного шведского дворянина, заканчивает свое монастырское обучение и, в наказание за свою запретную любовь, отправляется в Священные Земли в качестве рыцаря-тамплиера. Там ему суждено принять участие в битве при Хатине и других
Recorded date : UTC 2007-12-17 08:00:00
Encoded date : UTC 2014-10-05 18:22:34
Tagged date : UTC 2014-10-05 18:35:12
Copyright : AMC Pictures, Arion Communications Ltd., Dagsljus Filmequipment
Cover : Yes
Comment : «In a Time of War and Betrayal, a Hero Will Rise»
ContentRating : mpaa|R|400|
Title/Sort : Arn: Tempelriddaren
LongDeion : Арн, сын высокопоставленного шведского дворянина, заканчивает свое монастырское обучение и, в наказание за свою запретную любовь, отправляется в Священные Земли в качестве рыцаря-тамплиера. Там ему суждено принять участие в битве при Хатине и других событиях, связанных с тяжёлыми временами Иерусалимского королевства…
HDVideo : Yes
AppleStoreCatalogID : 266758
Vendor : Apple:vendor_id:2007-266758
Video
ID : 1
Format : AVC
Format/Info : Advanced Video Codec
Format profile : High@L4.1
Format settings, CABAC : Yes
Format settings, ReFrames : 9 frames
Codec ID : avc1
Codec ID/Info : Advanced Video Coding
Duration : 2h 18mn
Bit rate : 5 072 Kbps
Maximum bit rate : 26.3 Mbps
Width : 1 280 pixels
Height : 544 pixels
Display aspect ratio : 2.35:1
Frame rate mode : Constant
Frame rate : 24.000 fps
Color space : YUV
Chroma subsampling : 4:2:0
Bit depth : 8 bits
Scan type : Progressive
Bits/(Pixel*Frame) : 0.304
Stream size : 4.90 GiB (86%)
Title : Arn_ Tempelriddaren _2007_
Language : English
Encoded date : UTC 2014-10-05 18:22:34
Tagged date : UTC 2014-10-05 18:23:52
Color primaries : BT.709
Transfer characteristics : BT.709
Matrix coefficients : BT.709
Audio #1
ID : 2
Format : AAC
Format/Info : Advanced Audio Codec
Format profile : LC
Codec ID : 40
Duration : 2h 19mn
Bit rate mode : Variable
Bit rate : 175 Kbps
Maximum bit rate : 206 Kbps
Channel(s) : 2 channels
Channel positions : Front: L R
Sampling rate : 48.0 KHz
Compression mode : Lossy
Stream size : 174 MiB (3%)
Title : AAC MVO [Kravetc]
Language : Russian
Encoded date : UTC 2014-10-05 18:18:35
Tagged date : UTC 2014-10-05 18:23:52
Audio #2
ID : 3
Format : AC-3
Format/Info : Audio Coding 3
Mode extension : CM (complete main)
Format settings, Endianness : Big
Codec ID : ac-3
Duration : 2h 19mn
Bit rate mode : Constant
Bit rate : 640 Kbps
Channel(s) : 6 channels
Channel positions : Front: L C R, Side: L R, LFE
Sampling rate : 48.0 KHz
Bit depth : 16 bits
Compression mode : Lossy
Stream size : 637 MiB (11%)
Title : AC3 MVO [Kravetc]
Language : Russian
Encoded date : UTC 2014-10-05 18:23:44
Tagged date : UTC 2014-10-05 18:23:52
Menu
ID : 4
Codec ID : text
Duration : 2h 19mn
Encoded date : UTC 2014-10-05 18:25:04
Tagged date : UTC 2014-10-05 18:25:04
Bit rate mode : CBR

x264 лог

x264 [info]: frame I:1607 Avg QP:14.28 size:138373
x264 [info]: frame P:47259 Avg QP:18.91 size: 50161
x264 [info]: frame B:150476 Avg QP:20.50 size: 17767
x264 [info]: consecutive B-frames: 2.7% 3.4% 11.3% 28.8% 14.3% 33.2% 2.8% 1.2% 0.8% 0.2% 0.2% 0.2% 0.8%
x264 [info]: mb I I16..4: 12.8% 64.7% 22.4%
x264 [info]: mb P I16..4: 1.0% 15.2% 2.0% P16..4: 23.7% 31.0% 14.7% 4.7% 1.0% skip: 6.7%
x264 [info]: mb B I16..4: 0.1% 2.5% 0.2% B16..8: 35.1% 23.0% 4.0% direct: 8.5% skip:26.6% L0:39.8% L1:42.8% BI:17.4%
x264 [info]: 8x8 transform intra:82.9% inter:53.6%
x264 [info]: coded y,uvDC,uvAC intra: 92.2% 86.1% 58.2% inter: 38.0% 31.6% 10.9%
x264 [info]: i16 v,h,dc,p: 16% 11% 14% 59%
x264 [info]: i8 v,h,dc,ddl,ddr,vr,hd,vl,hu: 9% 8% 9% 9% 14% 13% 12% 12% 13%
x264 [info]: i4 v,h,dc,ddl,ddr,vr,hd,vl,hu: 10% 7% 6% 8% 17% 15% 13% 11% 12%
x264 [info]: i8c dc,h,v,p: 44% 21% 18% 17%
x264 [info]: Weighted P-Frames: Y:7.8% UV:4.8%
x264 [info]: ref P L0: 57.7% 12.5% 13.1% 5.5% 3.7% 2.8% 2.1% 1.2% 1.1% 0.2% 0.0%
x264 [info]: ref B L0: 82.8% 8.3% 3.9% 1.8% 1.3% 0.9% 0.7% 0.3%
x264 [info]: ref B L1: 93.8% 6.2%
x264 [info]: kb/s:5072.47

Screenshots

--
[Профиль] [ЛС]
Кто просматривает тему:

Показать сообщения:    

Текущее время: Сегодня 00:50

Часовой пояс: GMT



Вы не можете начинать темы
Вы не можете отвечать на сообщения
Вы не можете редактировать свои сообщения
Вы не можете удалять свои сообщения
Вы не можете голосовать в опросах
Вы не можете прикреплять файлы к сообщениям
Вы не можете скачивать файлы