Арн. Объединённое королевство / Arn. Riket vid vägens slut (2008) BDRip 720p by msltel | P

 
Автор Сообщение

sergej644 ®

Пол:

Стаж: 4 года 11 месяцев

Сообщений: 6046

Откуда: Soviet Union



Награды: Нет

Торрент-статистика

Создавать темы 10-Фев-2015 08:56

[Цитировать]

Название: Арн. Объединённое королевство
Оригинальное название: Arn. Riket vid vägens slut
Год выпуска: 2008
Жанр: Исторический, приключения, драма, экранизация
Выпущено: Германия, Дания, Швеция, Финляндия, Великобритания, Норвегия
Режиссер: Петер Флинт
В ролях: Йоаким Наттерквист, Морган Аллинг, Биби Андерссон, Джой Андерссон, Томас Больме, Николас Болтон, Якоб Седергрен, Анника Халлин, София Хелин, Юэль Киннаман, Каллум Митчел, Горан Рагнерстам, Дрисс Рухе, Билл Скарсгард, Густаф Скарсгард, Вальтер Скарсгард, Милинд Соман, Чемс-Эддин Зинун
О фильме: Второй фильм о шведском рыцаре тамплиеров Арне Магнассоне. История его жизни развивается в Святой земле во времена Саладина, битвы при Хатине и других событий, связанных с тяжёлыми временами Иерусалимского королевства. После всех трудностей, сомнений и испытаний Арн оставляет Иерусалим совсем другим человеком, возвращается в Швецию, измученную феодальными распрями, к своей семье, погрязшей в этих дрязгах, и к любви своей юности, Сесилии, с которой они были разлучены 20 лет. Экранизация произведения Яна Гиллоу.
Качество: BDRip 720p Сравнение с исходником
Видео: MPEG-4 AVC, 4140 Кбит/с, 1280x544, 24 кадра/с, 0.248 bpp
Аудио: Русский (AC3, 6 ch, 640 Кбит/с)
Размер: 4.35 ГБ
Продолжительность: 02:07:37
Перевод: Профессиональный многоголосый (студия Кравец)
Имеются неименованные главы/чаптеры.

MediaInfo

frame I:1574 Avg QP:15.86 size: 88445
frame P:39278 Avg QP:17.26 size: 42655
frame B:142915 Avg QP:19.22 size: 15669
Общее
Уникальный идентификатор : 238384008805179602391604187629955507804 (0xB357170F9ECACE6FB9169A040E2AE65C)
Полное имя : D:VideoArn.Objedinennoe korolevstvo.2008.BDRip.720p.mkv
Формат : Matroska
Версия формата : Version 4 / Version 2
Размер файла : 4,35 Гбайт
Продолжительность : 2 ч. 7 м.
Общий поток : 4877 Кбит/сек
Дата кодирования : UTC 2014-09-30 05:05:08
Программа кодирования : mkvmerge v6.9.1 ('Blue Panther') 64bit built on Apr 18 2014 18:23:38
Библиотека кодирования : libebml v1.3.0 + libmatroska v1.4.1
Видео
Идентификатор : 1
Формат : AVC
Формат/Информация : Advanced Video Codec
Профиль формата : High@L4.1
Параметр CABAC формата : Да
Параметр ReFrames формата : 9 кадров
Идентификатор кодека : V_MPEG4/ISO/AVC
Продолжительность : 2 ч. 7 м.
Битрейт : 4140 Кбит/сек
Ширина : 1280 пикселей
Высота : 544 пикселя
Соотношение сторон : 2,35:1
Режим частоты кадров : Постоянный
Частота кадров : 24,000 кадра/сек
Цветовое пространство : YUV
Субдискретизация насыщенности : 4:2:0
Битовая глубина : 8 бит
Тип развёртки : Прогрессивная
Бит/(Пиксели*Кадры) : 0.248
Размер потока : 3,69 Гбайт (85%)
Заголовок : BDRip -- STarankov
Библиотека кодирования : x264 core 142 r2431 ac76440
Настройки программы : cabac=1 / ref=9 / deblock=1:-1:-1 / analyse=0x3:0x113 / me=umh / subme=10 / psy=1 / psy_rd=1.00:0.15 / mixed_ref=1 / me_range=32 / chroma_me=1 / trellis=2 / 8x8dct=1 / cqm=0 / deadzone=21,11 / fast_pskip=0 / chroma_qp_offset=-3 / threads=6 / lookahead_threads=1 / sliced_threads=0 / nr=0 / decimate=1 / interlaced=0 / bluray_compat=0 / constrained_intra=0 / bframes=8 / b_pyramid=2 / b_adapt=2 / b_bias=0 / direct=1 / weightb=1 / open_gop=0 / weightp=2 / keyint=230 / keyint_min=23 / scenecut=40 / intra_refresh=0 / rc_lookahead=40 / rc=crf / mbtree=0 / crf=18.0 / qcomp=0.60 / qpmin=0 / qpmax=69 / qpstep=4 / vbv_maxrate=40000 / vbv_bufsize=50000 / crf_max=0.0 / nal_hrd=none / filler=0 / ip_ratio=1.40 / pb_ratio=1.30 / aq=1:1.00
Язык : English
Default : Да
Forced : Нет
Аудио
Идентификатор : 2
Формат : AC-3
Формат/Информация : Audio Coding 3
Расширение режима : CM (complete main)
Параметр Endianness формата : Big
Идентификатор кодека : A_AC3
Продолжительность : 2 ч. 7 м.
Вид битрейта : Постоянный
Битрейт : 640 Кбит/сек
Каналы : 6 каналов
Расположение каналов : Front: L C R, Side: L R, LFE
Частота : 48,0 КГц
Битовая глубина : 16 бит
Метод сжатия : С потерями
Размер потока : 584 Мбайт (13%)
Заголовок : MVO (студия Кравец)
Язык : Russian
Default : Да
Forced : Нет
Меню
00:00:00.000 : :Chapter 01
00:12:16.083 : :Chapter 02
00:23:30.125 : :Chapter 03
00:36:21.958 : :Chapter 04
00:48:06.875 : :Chapter 05
01:00:52.250 : :Chapter 06
01:11:32.041 : :Chapter 07
01:25:38.125 : :Chapter 08
01:37:51.333 : :Chapter 09
01:47:35.833 : :Chapter 10
02:01:08.000 : :Chapter 11
02:07:36.833 : :Chapter 12

Скриншоты

[Профиль] [ЛС]
Кто просматривает тему:

Показать сообщения:    

Текущее время: Сегодня 18:52

Часовой пояс: GMT



Вы не можете начинать темы
Вы не можете отвечать на сообщения
Вы не можете редактировать свои сообщения
Вы не можете удалять свои сообщения
Вы не можете голосовать в опросах
Вы не можете прикреплять файлы к сообщениям
Вы не можете скачивать файлы